Welcome Guest ( Log In | Register )

> Niht - Arcanum (2021), Black Metal
post Apr 8 2021, 16:31:11
Post #1

Правь статус, ####!111
**************
Group: Металариец
Posts: 2,731
Releases: 2244
From: Praha
On Forums: 9 years 10 months
Thanks: 63034 time(s)
Czech Republic


(IMG:http://metalarea.org/images/audiocovers/2021_Apr/acov_tid349438_thumb.jpg)

*Artist: Niht
*Album: Arcanum
*Year: 2021
*Genre: Black Metal
*Country: Germany (IMG:http://metalarea.org/forum/style_images/flags/Germany.png)
*Format: mp3@CBR320kbps
*Size: 88MB

Tracklist:
1. Angst 04:26
2. Schmerz 04:37
3. Lüge 04:01
4. Sucht 04:02
5. Hass 04:22
6. Wahn 05:48
7. Tod 07:07
******************************
Total playing time: 34:23



Extended info
Ván Records - VAN-337


Technical info
(IMG:http://metalarea.org/images/spectrogram/2021_Apr/1c5ff20d8e4071f865692da70709366c.png)
Input File: 02. Schmerz.mp3
Channels : 2
Sample Rate : 44100
Precision : 16-bit
Duration : 00:04:37.07 = 12218919 samples = 20780.5 CDDA sectors
File Size : 11.2M
Bit Rate : 322k
Sample Encoding: MPEG audio (layer I, II or III)
Comments :
Title=Schmerz
Artist=Niht
Album=Arcanum
Tracknumber=02/07
Year=2021
Genre=Black Metal



Register


Go to the top of the page
  Insert nick Quick quote
+Quote Post
 
Start new topic
Replies (1 - 6)
post Apr 9 2021, 13:45:19
Post #2
BAN
Banned till
Mar 3 2024, 11:01:22



@320

Register


Register


Go to the top of the page
  Insert nick Quick quote
+Quote Post
post Apr 9 2021, 16:02:11
Post #3

I hate you all
**************
Group: Металариец
Posts: 3,410
Releases: 108
From: Ukraine
On Forums: 16 years 9 months
Thanks: 8456 time(s)
Ukraine


Желание выключить альбом не появилось , значит думаю надо пару раз прослушать . Что то есть , но пока не могу уловить , но что то такое от финников . Но прослушать рекомендую , не самое худшее в последнее время что появлялось из нового . Но на узнаваемую немецкую школу мало похоже . Скорее же то отношение к стилю SARKRISTA , что не есть плохо .


Thanks:
(1) mondlicht,
Go to the top of the page
  Insert nick Quick quote
+Quote Post
post Apr 9 2021, 18:11:04
Post #4

Три Литра
***
Group: Завсегдатай
Posts: 222
Releases: 0
On Forums: 3 years 1 month
Thanks: 228 time(s)
Russian Federation


А ведь альбом получился очень даже неплох, это конечно не ТОП и не тотальный маст хэв. Очень твердая середина с заявкой на большее. В меру мелодичный, качественно сыгранный материал с правильной атмосферой.


Thanks:
(1) Brann,
Go to the top of the page
  Insert nick Quick quote
+Quote Post
post Apr 9 2021, 23:31:30
Post #5

Шесть Литров
******
Group: Металариец
Posts: 579
Releases: 0
On Forums: 15 years 1 month
Thanks: 446 time(s)
Brazil


(IMG:https://upload.wikimedia.org/wikipedia/en/5/57/Arcanum_cover_copy.jpg)
Go to the top of the page
  Insert nick Quick quote
+Quote Post
post Apr 11 2021, 20:42:23
Post #6

Маньяк
**********
Group: Металариец
Posts: 1,121
Releases: 4
From: Харьков
On Forums: 15 years 6 months
Thanks: 416 time(s)
Ukraine




Thanks:
(1) Chasm,
Go to the top of the page
  Insert nick Quick quote
+Quote Post
post Apr 17 2021, 09:57:54
Post #7

Маньяк
**********
Group: Металариец
Posts: 1,271
Releases: 0
From: Новосибирск
On Forums: 14 years 6 months
Thanks: 378 time(s)
Russian Federation


Есть немецкий блэк и получше (IMG:style_emoticons/default/smile3.gif)
Go to the top of the page
  Insert nick Quick quote
+Quote Post

Reply to this topicStart new topic
2 User(s) are reading this topic (2 Guests and 0 Anonymous Users)
0 Members:

 



- Lo-Fi Version Support form
Copyrights and abuse reports form
Time is now: 3rd March 2024 - 06:10:47