Welcome Guest ( Log In | Register )

> Vrademargk - Arrelats (2021), Melodic Death Metal
post Apr 9 2021, 17:19:49
Post #1

Правь статус, ####!111
**************
Group: Металариец
Posts: 26,728
Releases: 19290
From: Г.Харьков
On Forums: 9 years 2 months
Thanks: 386124 time(s)
Unknown


(IMG:http://metalarea.org/images/audiocovers/2021_Apr/acov_tid349461_thumb.jpg)

*Artist: Vrademargk
*Album: Arrelats
*Year: 2021
*Genre: Melodic Death Metal
*Country: Spain (IMG:http://metalarea.org/forum/style_images/flags/Spain.png)
*Format: mp3@CBR320kbps
*Size: 81MB

Tracklist:
1. Lividesa 01:49 instrumental
2. Arrelats 04:24
3. Estigmes Sobre Cendres 05:25
4. L'Alè Dels Indòmits 04:48
5. L'Art De Morir 07:30
6. Egocidi 03:48
7. Eudaimonia 07:42
******************************
Total playing time: 35:26




Extended info
Manel Rodríguez Drums
Rafael Ruiz Guitars
Jordi Urbano Vocals


Technical info
(IMG:http://metalarea.org/images/spectrogram/2021_Apr/a86ed80aef12f7b0f8f118b3256de854.png)
Input File: 07 - Eudaimonia.mp3
Channels : 2
Sample Rate : 44100
Precision : 16-bit
Duration : 00:07:42.68 = 20404320 samples = 34701.2 CDDA sectors
File Size : 18.5M
Bit Rate : 320k
Sample Encoding: MPEG audio (layer I, II or III)
Comments :
Title=Eudaimonia
Artist=Vrademargk
Album=ARRELATS
Tracknumber=7
Year=2021



Register

Register


Go to the top of the page
  Insert nick Quick quote
+Quote Post
 
Start new topic
Replies (1 - 5)
post Apr 12 2021, 01:00:40
Post #2
BAN
Banned till
Jan 28 2295, 09:34:44



Растянуто и грузит без приколов.В корзину.
Go to the top of the page
  Insert nick Quick quote
+Quote Post
post Apr 13 2021, 10:35:47
Post #3

Шесть Литров
******
Group: Металариец
Posts: 501
Releases: 0
From: Москва
On Forums: 14 years 9 months
Thanks: 111 time(s)
Russian Federation


Ничем не примечательный среднетемповый материал.


Thanks:
(1) Andrew,
Go to the top of the page
  Insert nick Quick quote
+Quote Post
post Apr 13 2021, 17:37:20
Post #4

MDM-Thrash Metal
**************
Group: Металариец
Posts: 10,496
Releases: 1268
From: Одесса
On Forums: 13 years 11 months
Thanks: 30826 time(s)
Ukraine


ЦИТАТА(Сварог Барг @ Apr 13 2021, 12:35:47) *
Ничем не примечательный среднетемповый материал.

(IMG:style_emoticons/default/dooo.gif) Нудная и однообразная тягомотина.
Go to the top of the page
  Insert nick Quick quote
+Quote Post
post Apr 16 2021, 03:44:29
Post #5

Ъ
**************
Group: Металариец
Posts: 10,677
Releases: 9
On Forums: 12 years 6 months
Thanks: 2177 time(s)
Sweden


Третьесорт.
Go to the top of the page
  Insert nick Quick quote
+Quote Post
post Apr 26 2021, 19:34:44
Post #6

добрый мизантроп
**************
Group: Металариец
Posts: 2,286
Releases: 1
From: Минск
On Forums: 10 years 8 months
Thanks: 1059 time(s)
Madagascar


Great drumms, fine vocals, okay guitars.
The 2nd half is black-mdm. With black elements guitars sounds much better.
Great swallowing album
Go to the top of the page
  Insert nick Quick quote
+Quote Post

Reply to this topicStart new topic
2 User(s) are reading this topic (2 Guests and 0 Anonymous Users)
0 Members:

 



- Lo-Fi Version Support form
Copyrights and abuse reports form
Time is now: 1st August 2021 - 10:51:36