Welcome Guest ( Log In | Register )

> 

Здесь релизы с живыми прямыми ссылками на lossless

> Horndal - Lake Drinker (2021), Sludge/Hardcore
post Apr 9 2021, 17:27:46
Post #1

Правь статус, ####!111
**************
Group: Металариец
Posts: 4,283
Releases: 3930
From: Одесса
On Forums: 13 years 3 months
Thanks: 43331 time(s)
Ukraine


(IMG:http://metalarea.org/images/audiocovers/2021_Apr/acov_tid349462_thumb.jpg)

*Artist: Horndal
*Album: Lake Drinker
*Year: 2021
*Genre: Sludge/Hardcore
*Country: Sweden (IMG:http://metalarea.org/forum/style_images/flags/Sweden.png)
*Format: mp3@CBR320kbps
*Size: 112MB

Tracklist:
1. Rossen 04:35
2. Horndal's Blodbad 04:55
3. The Uprising 02:54
4. The Black Wheel 04:13
5. Kalhygget 04:34
6. Ruhr 04:56
7. Growing Graves 05:08
8. Home 01:50
9. Thor Bear 04:11
10. Town Burner 03:50
11. Ormön 04:46
******************************
Total playing time: 45:52



Extended info
Line - up:
Erik Welén - Bass
Pontus Levahn - Drums (Tiger Lou, Torpedo)
Fredrik Boëthius Fjȁrem - Guitars (C.B Murdoc, ex-Mörk Gryning)
Henrik Levahn - Vocals, Guitars

Guest/Session:
Pelle Jacobsson - Percussion
Christer Falk - Horn
Daniel Johansson - Horn
Johan Jansson - Vocals (track 1) (Interment, Dreadful Fate, Moondark, ex-Dellamorte, ex-Fulmination, ex-Hatred, ex-Panzerfaust, ex-Regurgitate, ex-Beyond, Asocial, Parasit, ex-Centinex, ex-Demonical, ex-Gluttony, ex-Uncanny, ex-Die Hard (live), ex-Entombed A.D. (live), ex-October Tide (live), ex-S.G.R., ex-Fleshrevels, ex-Fuckface, ex-Pyosisfied, ex-Sideburners, ex-Spritvev, ex-Uncurbed)


Technical info
(IMG:http://metalarea.org/images/spectrogram/2021_Apr/6d1c2fb3f939d6187c8f00e335f8fa41.png)
Input File: 09. Thor Bear.mp3
Channels : 2
Sample Rate : 44100
Precision : 16-bit
Duration : 00:04:11.50 = 11091018 samples = 18862.3 CDDA sectors
File Size : 10.1M
Bit Rate : 320k
Sample Encoding: MPEG audio (layer I, II or III)
Comments :
Title=Thor Bear
Artist=Horndal
Album=Lake Drinker
Tracknumber=9
Year=2021
Genre=Sludge Metal | Hardcore



Register


Go to the top of the page
  Insert nick Quick quote
+Quote Post
 
Start new topic
Replies (1 - 3)
post Jun 9 2021, 09:05:21
Post #2

Шесть Литров
******
Group: Металариец
Posts: 682
Releases: 1
From: Россия, Санкт-Петербург
On Forums: 13 years 4 months
Thanks: 89 time(s)
Russian Federation


Обновите, пожалуйста, какую-нибудь ссылку
Go to the top of the page
  Insert nick Quick quote
+Quote Post
post Jun 12 2021, 04:59:32
Post #3

Правь статус, ####!111
Group Icon
Group: S-moderation team
Posts: 21,960
Releases: 1443
On Forums: 10 years 6 months
Thanks: 102653 time(s)
Unknown


Register
Register


Go to the top of the page
  Insert nick Quick quote
+Quote Post
post Jul 22 2021, 13:33:36
Post #4

Group: Подсевший
Posts: 37
Releases: 0
From: The set of the movie Tremors
On Forums: 3 years 10 months
Thanks: 9 time(s)
Sweden


Awesome record!
Go to the top of the page
  Insert nick Quick quote
+Quote Post

Reply to this topicStart new topic
1 User(s) are reading this topic (1 Guests and 0 Anonymous Users)
0 Members:

 



- Lo-Fi Version Support form
Copyrights and abuse reports form
Time is now: 25th September 2021 - 04:08:40