Welcome Guest ( Log In | Register )

> Sphere - La Symphonie Des Sphères (2018), Atmospheric Black Metal (D6)
post Apr 10 2021, 22:48:01
Post #1

Пять Литров
*****
Group: Металариец
Posts: 431
Releases: 73
From: italy
On Forums: 12 years 11 months
Thanks: 1640 time(s)
Italy


(IMG:https://metalarea.org/images/audiocovers/2021_Apr/acov_tid349526_thumb.jpg)

*Artist: Sphere
*Album: La Symphonie Des Sphères
*Year: 2018
*Genre: Atmospheric Black Metal
*Country: France (IMG:https://metalarea.org/forum/style_images/flags/France.png)
*Format: mp3@CBR320kbps
*Size: 160MB

Tracklist:
1. Prélude 06:27
2. La symphonie Des Sphères 18:19
3. Echos D'un Astre Mourant 12:30
4. Les Vents Stellaires 16:55
5. Eruption 14:16
6. Postlude 05:57
******************************
Total playing time: 1:14:24



Technical info
(IMG:https://metalarea.org/images/spectrogram/2021_Apr/4461d87805a057512cd6636e4bcfb7cb.png)
Input File: 02 - La symphonie des sphères.mp3
Channels : 2
Sample Rate : 44100
Precision : 16-bit
Duration : 00:18:26.12 = 48779672 samples = 82958.6 CDDA sectors
File Size : 44.6M
Bit Rate : 322k
Sample Encoding: MPEG audio (layer I, II or III)
Comments :
Title=La Symphonie Des Sphères
Artist=Sphere
Album=La Symphonie Des Sphères
Tracknumber=2
Year=2016
Genre=Atmospheric Black Metal



Register


Go to the top of the page
  Insert nick Quick quote
+Quote Post
 
Start new topic
Replies (1 - 2)
post Apr 11 2021, 16:39:28
Post #2

Group: Подсевший
Posts: 44
Releases: 0
From: The Road...
On Forums: 13 years 9 months
Thanks: 14 time(s)
Canada


Thanks again. (IMG:style_emoticons/default/smile3.gif)


Thanks:
(1) murian,
Go to the top of the page
  Insert nick Quick quote
+Quote Post
post May 4 2021, 17:04:14
Post #3

добрый мизантроп
**************
Group: Металариец
Posts: 2,237
Releases: 1
From: Минск
On Forums: 10 years 7 months
Thanks: 1041 time(s)
Madagascar


Its almost as good as Azelisassath - Evil Manifestations Against Mankind, but endless and atmospheric
Go to the top of the page
  Insert nick Quick quote
+Quote Post

Reply to this topicStart new topic
2 User(s) are reading this topic (2 Guests and 0 Anonymous Users)
0 Members:

 



- Lo-Fi Version Support form
Copyrights and abuse reports form
Time is now: 20th June 2021 - 23:55:55