Welcome Guest ( Log In | Register )

> Coprocobra - Lesbian Gangbang Kawabanga (2021), Slamming Goregrind
post Apr 11 2021, 06:10:20
Post #1

Правь статус, ####!111
**************
Group: Металариец
Posts: 4,086
Releases: 3742
From: Одесса
On Forums: 13 years 3 weeks
Thanks: 40762 time(s)
Ukraine


(IMG:http://metalarea.org/images/audiocovers/2021_Apr/acov_tid349530_thumb.jpg)

*Artist: Coprocobra
*Album: Lesbian Gangbang Kawabanga
*Year: 2021
*Genre: Slamming Goregrind
*Country: Russian Federation (IMG:http://metalarea.org/forum/style_images/flags/Russian%20Federation.png)
*Format: mp3@CBR320kbps
*Size: 45MB

Tracklist:
1. Endlessly Dumb & Useless Fag 02:42
2. N.F.O.R.M. 02:32
3. Tinny Lacting Tits 01:37
4. Heavy Petting Zoo 02:32
5. My Little Strappony 02:07
6. Invalid Horny Harlem Shake 00:22
7. Quasi Incest Orgy 01:56
8. Georgian in the Man’s Bathhouse 01:52
9. Dickhead Curd Pandemic 01:44
10. Akbar Tea 00:52
******************************
Total playing time: 18:16



Extended info
Line - up:

Daniil Subbotin - Guitars
Dima Stepanow - Vocals (lead) (Putrefied Cadaver)
Wagner Love - Vocals, Guitars


Technical info
(IMG:http://metalarea.org/images/spectrogram/2021_Apr/e386b91dc8d1619d03a519163e0597d5.png)
Input File: 01. Endlessly Dumb & Useless Fag.mp3
Channels : 2
Sample Rate : 44100
Precision : 16-bit
Duration : 00:02:42.83 = 7180935 samples = 12212.5 CDDA sectors
File Size : 6.52M
Bit Rate : 320k
Sample Encoding: MPEG audio (layer I, II or III)
Comments :
Title=Endlessly Dumb & Useless Fag
Artist=CoproCobra
Album=Lesbian Gangbang Kawabanga
Tracknumber=1
Year=2021
Genre=Slamming Goregrind



Register


Go to the top of the page
  Insert nick Quick quote
+Quote Post
 
Start new topic
Replies (1 - 3)
post Apr 12 2021, 08:24:10
Post #2

Маньяк
**********
Group: Металариец
Posts: 1,040
Releases: 1
From: APATIN, SERBIA, АПАТИН, СЕРБИЯ
On Forums: 13 years 8 months
Thanks: 2308 time(s)



Flac

Register


Thanks:
Go to the top of the page
  Insert nick Quick quote
+Quote Post
post Apr 12 2021, 08:49:30
Post #3

Full-of-Hate
**************
Group: Металариец
Posts: 4,417
Releases: 0
From: Moscow
On Forums: 11 years 11 months
Thanks: 4565 time(s)
Russian Federation


Хорошо, но мало. Годный плясовой музон, с юморком и кумаром. (IMG:style_emoticons/default/banana.gif)
Решительно одобряю.
За ироничную обложку еще +228 к карме.
Go to the top of the page
  Insert nick Quick quote
+Quote Post
post Apr 12 2021, 11:01:52
Post #4

Восемь Литров
********
Group: Металариец
Posts: 807
Releases: 9
From: Беларусь
On Forums: 14 years 3 days
Thanks: 274 time(s)
Belarus


Вагнер - из ЦСКА?
Go to the top of the page
  Insert nick Quick quote
+Quote Post

Reply to this topicStart new topic
1 User(s) are reading this topic (1 Guests and 0 Anonymous Users)
0 Members:

 



- Lo-Fi Version Support form
Copyrights and abuse reports form
Time is now: 25th June 2021 - 10:10:36