Welcome Guest ( Log In | Register )

> Horkos - A Call From The Grave (2020), Thrash Metal
post Apr 11 2021, 11:44:01
Post #1

Правь статус, ####!111
**************
Group: Металариец
Posts: 26,335
Releases: 18950
From: Г.Харьков
On Forums: 9 years 1 month
Thanks: 378202 time(s)
Unknown


(IMG:http://metalarea.org/images/audiocovers/2021_Apr/acov_tid349535_thumb.jpg)

*Artist: Horkos
*Album: A Call From The Grave
*Year: 2020
*Genre: Thrash Metal
*Country: Philippines (IMG:http://metalarea.org/forum/style_images/flags/Philippines.png)
*Format: mp3@CBR320kbps
*Size: 158MB

Tracklist:
1. Theory of Killings with Authority 06:53
2. A Call from the Grave 05:46
3. Destination : Death 06:16
4. Hypocrisy 04:19
5. Sheep Among Wolves 08:47
6. Savagery 06:53
7. Fall of the Damned 05:53
8. The Self Proclaimed God 06:09
9. Iron Nail Runs in 09:28
10. The Creator 04:24
11. Tampalasan 06:13
******************************
Total playing time: 1:11:01



Extended info
Jonathan Ang Bass
Aldrix Larenz Serrano Drums
Justin Ecleo Guitars
Jorel Yuzon Vocals, Guitars




Technical info
(IMG:http://metalarea.org/images/spectrogram/2021_Apr/01d5a992629f8da034c752dca6d6a9e2.png)
Input File: 07 - Fall Of The Damned.mp3
Channels : 2
Sample Rate : 44100
Precision : 16-bit
Duration : 00:05:54.00 = 15611400 samples = 26550 CDDA sectors
File Size : 14.2M
Bit Rate : 322k
Sample Encoding: MPEG audio (layer I, II or III)
Comments :
Title=Fall Of The Damned
Artist=Horkos
Album=A Call From The Grave
Tracknumber=7
Year=2020-04-08
Genre=Rock/Metal
Discnumber=1



Register


Go to the top of the page
  Insert nick Quick quote
+Quote Post
 
Start new topic
Replies (1 - 4)
post Apr 12 2021, 00:05:34
Post #2
BAN
Banned till
Jan 28 2295, 09:34:44



Скачаю,чтобы понять когда будет время .Неужели они не просто так написали песни по 7-9 минут.Такое без потери нити могли только мэтры.Прослушала третий трек пока пишу ,курю ,пью вино и качаю.
Go to the top of the page
  Insert nick Quick quote
+Quote Post
post Apr 12 2021, 07:20:13
Post #3

В прогрессиве
****
Group: Металариец
Posts: 332
Releases: 61
From: saratov
On Forums: 11 years 10 months
Thanks: 1492 time(s)
Russian Federation


ЦИТАТА(SveT @ Apr 12 2021, 03:05:34) *
Скачаю,чтобы понять когда будет время .Неужели они не просто так написали песни по 7-9 минут.Такое без потери нити могли только мэтры.Прослушала третий трек пока пишу ,курю ,пью вино и качаю.

Продолжай наблюдение
Go to the top of the page
  Insert nick Quick quote
+Quote Post
post Apr 12 2021, 07:28:41
Post #4

hearer & reader
**************
Group: Металариец
Posts: 9,750
Releases: 172
From: Moscow
On Forums: 13 years 9 months
Thanks: 10933 time(s)
Russian Federation


Снотворный трэш?
Go to the top of the page
  Insert nick Quick quote
+Quote Post
post Apr 13 2021, 17:21:10
Post #5

MDM-Thrash Metal
**************
Group: Металариец
Posts: 10,398
Releases: 1229
From: Одесса
On Forums: 13 years 10 months
Thanks: 30207 time(s)
Ukraine




ЦИТАТА(AHBAnep @ Apr 12 2021, 09:28:41) *
Снотворный трэш?

Монотонно-неторопливо-сонный...
Go to the top of the page
  Insert nick Quick quote
+Quote Post

Reply to this topicStart new topic
1 User(s) are reading this topic (1 Guests and 0 Anonymous Users)
0 Members:

 



- Lo-Fi Version Support form
Copyrights and abuse reports form
Time is now: 22nd June 2021 - 11:58:25