Welcome Guest ( Log In | Register )

 
Reply to this topicStart new topic
> Fuzzthrone - Temple Of The Fuzz (2021), Stoner/Doom Metal
post Apr 11 2021, 12:02:14
Post #1

Правь статус, ####!111
**************
Group: Металариец
Posts: 55,387
Releases: 1153
On Forums: 14 years 8 months
Thanks: 53777 time(s)
Russian Federation


(IMG:http://metalarea.org/images/audiocovers/2021_Apr/acov_tid349536_thumb.jpg)

*Artist: Fuzzthrone
*Album: Temple Of The Fuzz
*Year: 2021
*Genre: Stoner/Doom Metal
*Country: Russian Federation (IMG:http://metalarea.org/forum/style_images/flags/Russian%20Federation.png)
*Format: mp3@CBR320kbps
*Size: 64MB

Tracklist:
1. Divine Touch (Intro) 03:07
2. Dead Guy's Town 02:54
3. The Undertaker 03:48
4. Дымный гость (Hazy Guest) 05:34
5. Нити (Knits) 04:40
6. Divine Touch (Album Version) 07:25
******************************
Total playing time: 27:28



Technical info
(IMG:http://metalarea.org/images/spectrogram/2021_Apr/d0ebe9d0c4303ba52eda0d5a02ca422f.png)
Input File: Fuzzthrone - Temple of the Fuzz - 04 Дымный гость (Hazy guest).mp3
Channels : 2
Sample Rate : 44100
Precision : 16-bit
Duration : 00:05:34.86 = 14767150 samples = 25114.2 CDDA sectors
File Size : 13.6M
Bit Rate : 324k
Sample Encoding: MPEG audio (layer I, II or III)
Comments :
Title=Дымный гость (Hazy guest)
Artist=Fuzzthrone
Album=Temple of the Fuzz
Tracknumber=4
Year=2021



Register


Go to the top of the page
  Insert nick Quick quote
+Quote Post

Reply to this topicStart new topic
1 User(s) are reading this topic (1 Guests and 0 Anonymous Users)
0 Members:

 



- Lo-Fi Version Support form
Copyrights and abuse reports form
Time is now: 23rd February 2024 - 11:31:11