Welcome Guest ( Log In | Register )

> Morte Silmoris - Morte Silmoris (2020), Thrash Metal
post Apr 11 2021, 12:04:05
Post #1

Правь статус, ####!111
**************
Group: Металариец
Posts: 26,335
Releases: 18950
From: Г.Харьков
On Forums: 9 years 1 month
Thanks: 378203 time(s)
Unknown


(IMG:http://metalarea.org/images/audiocovers/2021_Apr/acov_tid349537_thumb.jpg)

*Artist: Morte Silmoris
*Album: Morte Silmoris
*Year: 2020
*Genre: Thrash Metal
*Country: Hungary (IMG:http://metalarea.org/forum/style_images/flags/Hungary.png)
*Format: mp3@CBR320kbps
*Size: 81MB

Tracklist:
1. Prisoner of War 04:36
2. Morte Silmoris 04:42
3. Friendly Fire 03:08
4. Before We Die 03:45
5. Mortal One 04:06
6. Dawn of Pain 04:49
7. Longest Winter 05:49
8. Good Day to Die 04:09
******************************
Total playing time: 35:04




Extended info
Kiss Vámosi István Bass
Kiss Patrik Drums
Dávid Zalka Guitars (lead), Vocals
See also: Mexacito, ex-Eve Six (live)
Varga Csaba Guitars (rhythm)


Technical info
(IMG:http://metalarea.org/images/spectrogram/2021_Apr/81c18fe8725df282b92676413988d678.png)
Input File: 07 - Longest Winter.mp3
Channels : 2
Sample Rate : 44100
Precision : 16-bit
Duration : 00:05:49.00 = 15390900 samples = 26175 CDDA sectors
File Size : 14.1M
Bit Rate : 323k
Sample Encoding: MPEG audio (layer I, II or III)
Comments :
Title=Longest Winter
Artist=Morte Silmoris
Album=Morte Silmoris
Tracknumber=7
Year=2020-12-15
Discnumber=1



Register


Go to the top of the page
  Insert nick Quick quote
+Quote Post
 
Start new topic
Replies (1 - 3)
post Apr 11 2021, 18:55:34
Post #2

Два кусочека кавбаски
***
Group: Завсегдатай
Posts: 265
Releases: 29
From: Колыбель металла
On Forums: 13 years 7 months
Thanks: 410 time(s)
Russian Federation


интересный вокал аля Мустейн


Thanks:
Go to the top of the page
  Insert nick Quick quote
+Quote Post
post Apr 11 2021, 23:59:56
Post #3
BAN
Banned till
Jan 28 2295, 09:34:44



Возникает вопрос ,а какой вокал сильнее...
Go to the top of the page
  Insert nick Quick quote
+Quote Post
post Apr 13 2021, 17:25:44
Post #4

MDM-Thrash Metal
**************
Group: Металариец
Posts: 10,398
Releases: 1229
From: Одесса
On Forums: 13 years 10 months
Thanks: 30207 time(s)
Ukraine


Очень неплохой дебют от мадьяров. Megadeth imitation
Go to the top of the page
  Insert nick Quick quote
+Quote Post

Reply to this topicStart new topic
1 User(s) are reading this topic (1 Guests and 0 Anonymous Users)
0 Members:

 



- Lo-Fi Version Support form
Copyrights and abuse reports form
Time is now: 22nd June 2021 - 12:36:28