Welcome Guest ( Log In | Register )

> 

Здесь релизы с живыми прямыми ссылками на lossless

> Abigorum - Vergessene Stille (2021), Black/Doom Metal
post Apr 11 2021, 13:33:48
Post #1

Правь статус, ####!111
**************
Group: Металариец
Posts: 27,436
Releases: 19916
From: Г.Харьков
On Forums: 9 years 4 months
Thanks: 401971 time(s)
Unknown


(IMG:http://metalarea.org/images/audiocovers/2021_Apr/acov_tid349540_thumb.jpg)

*Artist: Abigorum
*Album: Vergessene Stille
*Year: 2021
*Genre: Black/Doom Metal
*Country: International (Russia (IMG:http://metalarea.org/forum/style_images/flags/Russian%20Federation.png) / Germany (IMG:http://metalarea.org/forum/style_images/flags/Germany.png) )
*Format: mp3@CBR320kbps
*Size: 92MB

Tracklist:
1. Erhebt eure mit Blut gefüllten Hörner 11:12
2. Der geheimnisvolle Käfig 09:13
3. Vergessene Stille 06:17
4. Zerbrechlicher kleiner Geist 11:11
5. Rast und Abschied 02:53
******************************
Total playing time: 40:46





Extended info
Aleksey Korolyov - Keyboards, Drums
Tino Thiele - Guitars, Vocals, Bass





Technical info
(IMG:http://metalarea.org/images/spectrogram/2021_Apr/605b5811e7db2651a56358ffb5d588ff.png)
Input File: 04 - Zerbrechlicher kleiner Geist.mp3
Channels : 2
Sample Rate : 44100
Precision : 16-bit
Duration : 00:11:11.45 = 29611033 samples = 50358.9 CDDA sectors
File Size : 26.9M
Bit Rate : 320k
Sample Encoding: MPEG audio (layer I, II or III)
Comments :
Title=Zerbrechlicher kleiner Geist
Artist=Abigorum
Album=Vergessene Stille
Tracknumber=4
Year=2021
Genre=Metal



Register


Go to the top of the page
  Insert nick Quick quote
+Quote Post
 
Start new topic
Replies (1 - 4)
post Apr 11 2021, 17:52:28
Post #2

Три Литра
***
Group: Завсегдатай
Posts: 222
Releases: 0
On Forums: 8 months 5 days
Thanks: 196 time(s)
Russian Federation


Интернациональный, кажется дуэт выпустил новый альбом, мне творчество Abigorum пришлось по душе и заинтересовало. Vergessene Stille звучит обволакивающее, местами даже "мягко". От Дума здесь гораздо больше чем от Блэка. На ум сразу приходят ассоциации
датчанином Nortt, австралийцами Elysian Blaze, даже Xasthur где то мелькает вдалеке. Но работа получилась безусловно самостоятельная, очень мрачная по атмосфере и качественно сыгранная и записанная в земном плане. Можно рекомендовать


Go to the top of the page
  Insert nick Quick quote
+Quote Post
post Apr 11 2021, 23:56:34
Post #3
BAN
Banned till
Jan 28 2295, 09:34:44



Согласна.Но стиль тут другой если точно.
Go to the top of the page
  Insert nick Quick quote
+Quote Post
post May 20 2021, 15:48:10
Post #4

Forever Underground
**************
Group: Металариец
Posts: 8,816
Releases: 0
On Forums: 6 years 5 months
Thanks: 12247 time(s)
Unknown


Lossless
Register

Register


Thanks:
Go to the top of the page
  Insert nick Quick quote
+Quote Post
post May 21 2021, 11:28:00
Post #5

кручу наждак
**************
Group: Металариец
Posts: 5,134
Releases: 104
From: Самара
On Forums: 11 years 4 months
Thanks: 4122 time(s)
Russian Federation


Показалось, что по сравнению с прошлым альбомом материал стал более мрачным и думовым, вплоть до фьюнеральной заглавной песни. В любом случае очень хорошо. Сатанату пачот и уважуха за качественный контент.


Thanks:
(1) Occultas,
Go to the top of the page
  Insert nick Quick quote
+Quote Post

Reply to this topicStart new topic
2 User(s) are reading this topic (2 Guests and 0 Anonymous Users)
0 Members:

 



- Lo-Fi Version Support form
Copyrights and abuse reports form
Time is now: 25th September 2021 - 22:53:16