Welcome Guest ( Log In | Register )

> И неформату есть предел.

Рэп/хип-хоп/шансон/поп удаляются. Для них есть свои порталы.

> Whitesnake - Slide It In (1984), Hard Rock (D11)
post Apr 11 2021, 13:45:09
Post #1

Правь статус, ####!111
**************
Group: Металариец
Posts: 48,723
Releases: 822
On Forums: 11 years 11 months
Thanks: 43145 time(s)
Russian Federation


(IMG:http://metalarea.org/images/audiocovers/2021_Apr/acov_tid349541_thumb.jpg)

*Artist: Whitesnake
*Album: Slide It In
*Year: 1984
*Genre: Hard Rock
*Country: United Kingdom (IMG:http://metalarea.org/forum/style_images/flags/United%20Kingdom.png)
*Format: mp3@CBR320kbps
*Size: 95MB

Tracklist:
1. Gambler 03:59
2. Slide It In 03:18
3. Slow An' Easy 06:00
4. Love Ain't No Stranger 04:07
5. Give Me More Time 03:42
6. Standing In The Shadow 03:35
7. Hungry For Love 03:58
8. All Or Nothing 03:41
9. Spit It Out 04:14
10. Guilty Of Love 03:24
11. Need Your Love So Bad (Bonus Track) 03:14
******************************
Total playing time: 43:12

(IMG:http://metalarea.org/images/youtube.png)

Technical info
(IMG:http://metalarea.org/images/spectrogram/2021_Apr/30820e5b778446adc442526d182975ab.png)
Input File: 01. Gambler.mp3
Channels : 2
Sample Rate : 44100
Precision : 16-bit
Duration : 00:03:59.45 = 10559921 samples = 17959 CDDA sectors
File Size : 9.61M
Bit Rate : 321k
Sample Encoding: MPEG audio (layer I, II or III)
Comments :
Title=Gambler
Artist=Whitesnake
Album=Slide It In CD2 - Original UK Mix 35th Anniversary Remaster [2019 Rhino Parlophone R2 585836] EU
Tracknumber=01/13
Year=1984
Genre=Hard Rock



Register


Go to the top of the page
  Insert nick Quick quote
+Quote Post
 
Start new topic
Replies (1 - 2)
post Apr 12 2021, 14:51:50
Post #2

Правь статус, ####!111
**************
Group: Металариец
Posts: 48,723
Releases: 822
On Forums: 11 years 11 months
Thanks: 43145 time(s)
Russian Federation


(IMG:style_emoticons/default/20.gif)
Go to the top of the page
  Insert nick Quick quote
+Quote Post
post Apr 12 2021, 16:40:31
Post #3

Враг Газпрома
**************
Group: Металариец
Posts: 6,489
Releases: 0
On Forums: 11 years 11 months
Thanks: 2677 time(s)
Russian Federation


Недавно пару недель крутил в машине этот и еще несколько альбомов Whitesnake, так что впечатления свежи.
Кавердейлу всегда везло и с составом, и, в особенности, с гитаристами. Не только в плане того, как они играли, но и в плане реализации кавердейловских идей. Так что альбом, не смоттря на проблемы с записью, получился таким, каким хотелось Дэвиду - блестящим, запоминающимся и коммерчески успешным. Тут половина песен смело влазит в The Best Of работ группы: Slow An' Easy, Love Ain't No Stranger, Standing In The Shadow, Hungry For Love, Guilty Of Love. В свое время альбом очннь мне не нравился именно своим коммерческим звучанием, но... время прошло, и он стал восприниматься мной более спокойно. Нормальная такая музыка, хотя работы предыдущего (условно) состава нравятся больше.


Thanks:
Go to the top of the page
  Insert nick Quick quote
+Quote Post

Reply to this topicStart new topic
1 User(s) are reading this topic (1 Guests and 0 Anonymous Users)
0 Members:

 



- Lo-Fi Version Support form
Copyrights and abuse reports form
Time is now: 11th May 2021 - 08:30:39