Welcome Guest ( Log In | Register )

> Family Devotion Murder - Tentacles (2021), Death/Groove Metal
post Apr 12 2021, 19:54:42
Post #1

Время Мары
**************
Group: Металариец
Posts: 3,242
Releases: 473
From: Харьков
On Forums: 12 years 1 month
Thanks: 9717 time(s)
Ukraine


(IMG:http://metalarea.org/images/audiocovers/2021_Apr/acov_tid349587_thumb.jpg)

*Artist: Family Devotion Murder
*Album: Tentacles
*Year: 2021
*Genre: Death/Groove Metal
*Country: Italy (IMG:http://metalarea.org/forum/style_images/flags/Italy.png)
*Format: mp3@CBR320kbps
*Size: 109MB

Tracklist:
01. Intro Virus- Dead Land 02:05
02. Mr Junker Fuck Off 03:58
03. Back from the Pit 04:06
04. Banditismo 04:39
05. Cosa Nostra 03:34
06. Don Satan 05:31
07. World Decline 05:31
08. Feel My Blade 04:35
09. Padrino 02:42
10. Kraken 04:43
11. Warrior Satanico 05:30
******************************
Total playing time: 46:54

Technical info
(IMG:http://metalarea.org/images/spectrogram/2021_Apr/4ffb272f2e9db7960b10f69380cd1ea2.png)
Input File: 02 - Mr Junker Fuck Off.mp3
Channels : 2
Sample Rate : 44100
Precision : 16-bit
Duration : 00:03:58.59 = 10521907 samples = 17894.4 CDDA sectors
File Size : 9.69M
Bit Rate : 325k
Sample Encoding: MPEG audio (layer I, II or III)
Comments :
Title=Mr Junker Fuck Off
Artist=Family Devotion Murder
Album=Tentacles
Tracknumber=2
Year=2021
Discnumber=1/1



Register


Go to the top of the page
  Insert nick Quick quote
+Quote Post
 
Start new topic
Replies (1 - 3)
post Apr 13 2021, 05:45:45
Post #2

hearer & reader
**************
Group: Металариец
Posts: 9,814
Releases: 172
From: Moscow
On Forums: 13 years 10 months
Thanks: 11073 time(s)
Russian Federation




Go to the top of the page
  Insert nick Quick quote
+Quote Post
post Apr 13 2021, 11:17:44
Post #3

Маньяк
**********
Group: Металариец
Posts: 1,067
Releases: 1
From: APATIN, SERBIA, АПАТИН, СЕРБИЯ
On Forums: 13 years 9 months
Thanks: 2445 time(s)



Flac

Register


Thanks:
(2) caro, Olethros,
Go to the top of the page
  Insert nick Quick quote
+Quote Post
post Apr 27 2021, 18:19:42
Post #4

brutalcesar
**************
Group: Металариец
Posts: 18,228
Releases: 71
From: Рязань
On Forums: 12 years 6 months
Thanks: 10280 time(s)
Russian Federation


Дескор вперемешку с дэтхом модерново-звучащим
Go to the top of the page
  Insert nick Quick quote
+Quote Post

Reply to this topicStart new topic
2 User(s) are reading this topic (2 Guests and 0 Anonymous Users)
0 Members:

 



- Lo-Fi Version Support form
Copyrights and abuse reports form
Time is now: 29th July 2021 - 14:20:45