Welcome Guest ( Log In | Register )

> И неформату есть предел.

Рэп/хип-хоп/шансон/поп удаляются. Для них есть свои порталы.

 
Reply to this topicStart new topic
> Goat - Commune (2014), Psychedelic Rock/Afrobeat (D4)
post Apr 13 2021, 14:58:23
Post #1

Правь статус, ####!111
**************
Group: Металариец
Posts: 48,732
Releases: 822
On Forums: 11 years 11 months
Thanks: 43172 time(s)
Russian Federation


(IMG:http://metalarea.org/images/audiocovers/2021_Apr/acov_tid349609_thumb.jpg)

*Artist: Goat
*Album: Commune
*Year: 2014
*Genre: Psychedelic Rock/Afrobeat
*Country: Sweden (IMG:http://metalarea.org/forum/style_images/flags/Sweden.png)
*Format: mp3@CBR320kbps
*Size: 89MB

Tracklist:
1. Talk To God 06:39
2. Words 03:06
3. The Light Within 02:57
4. To Travel The Path Unknown 02:29
5. Goatchild 04:01
6. Goatslaves 04:45
7. Hide From The Sun 03:36
8. Bondye 05:01
9. Gathering Of Ancient Tribes 06:18
******************************
Total playing time: 38:52



Technical info
(IMG:http://metalarea.org/images/spectrogram/2021_Apr/cbbe2ee041b457f353f7ea95e8fbaef1.png)
Input File: 09. Gathering Of Ancient Tribes.mp3
Channels : 2
Sample Rate : 44100
Precision : 16-bit
Duration : 00:06:18.44 = 16689204 samples = 28383 CDDA sectors
File Size : 15.2M
Bit Rate : 321k
Sample Encoding: MPEG audio (layer I, II or III)
Comments :
Title=Gathering Of Ancient Tribes
Artist=Goat
Album=Commune
Tracknumber=9
Year=2014
Genre=Rock



Register


Go to the top of the page
  Insert nick Quick quote
+Quote Post

Reply to this topicStart new topic
1 User(s) are reading this topic (1 Guests and 0 Anonymous Users)
0 Members:

 



- Lo-Fi Version Support form
Copyrights and abuse reports form
Time is now: 14th May 2021 - 11:20:57