Welcome Guest ( Log In | Register )

Объявления

* gmail.com упорно продолжает считать почту с нас "unsolicited" и отбивает в том числе и письма активации, поэтому просьба использовать альтернативные почтовые ящики.
------------
* gmail.com continues reject all mail from us as "unsolicited" (activation mails too) therefore please use alternate mail servers.
> Endseeker - Mount Carcass (2021), Old School Death Metal
post Apr 15 2021, 10:17:55
Post #1

Правь статус, ####!111
**************
Group: Металариец
Posts: 35,994
Releases: 26829
From: Г.Харьков
On Forums: 12 years 3 weeks
Thanks: 581869 time(s)
Ukraine


(IMG:http://metalarea.org/images/audiocovers/2021_Apr/acov_tid349664_thumb.jpg)

*Artist: Endseeker
*Album: Mount Carcass
*Year: 2021
*Genre: Old School Death Metal
*Country: Germany (IMG:http://metalarea.org/forum/style_images/flags/Germany.png)
*Format: mp3@CBR320kbps
*Size: 83MB

Tracklist:
1. Unholy Rites 04:06
2. Merciless Tide 04:37
3. Bloodline 04:18
4. Mount Carcass 03:21
5. Count the Dead 04:40
6. Cult 04:08
7. Moribund 04:03
8. Frantic Redemption 03:28
9. Escape from New York (John Carpenter cover) 03:07 instrumental
******************************
Total playing time: 35:48




Extended info
Torsten Bass
Ben Guitars
Lenny Vocals
Andre Drums
Jury Guitars


Technical info
(IMG:http://metalarea.org/images/spectrogram/2021_Apr/49efc46b92d8074d26b1433c94d24b1d.png)
Input File: 05. Count the Dead.mp3
Channels : 2
Sample Rate : 44100
Precision : 16-bit
Duration : 00:00:00.28 = 12348 samples = 21 CDDA sectors
File Size : 11.5M
Bit Rate : 327M
Sample Encoding: MPEG audio (layer I, II or III)
Comments :
Title=Count the Dead
Artist=Endseeker
Album=Mount Carcass
Tracknumber=05
Year=2021



Register


Go to the top of the page
  Insert nick Quick quote
+Quote Post
 
Start new topic
Replies (1 - 5)
post Apr 15 2021, 22:36:17
Post #2

Правь статус, ####!111
**************
Group: Металариец
Posts: 35,994
Releases: 26829
From: Г.Харьков
On Forums: 12 years 3 weeks
Thanks: 581869 time(s)
Ukraine


FLAC (Tracks) 267 mb
Register


Go to the top of the page
  Insert nick Quick quote
+Quote Post
post Apr 15 2021, 23:09:33
Post #3

Crush The Enemies
**************
Group: Металариец
Posts: 4,337
Releases: 0
From: Moscow
On Forums: 14 years 8 months
Thanks: 2818 time(s)
Russian Federation



Как всегда рвут в клочья - КРАСАВЦЫ!!! (IMG:style_emoticons/default/metaler.gif) (IMG:style_emoticons/default/metaler.gif) (IMG:style_emoticons/default/metaler.gif)

P.S Саунд ЖИРРРРРРРРНЕЙШИЙ нарулили - шведоОЛДскульные гитарки прямо ЗАВЫВАЮТ ввысь на ЛУНУ!!! (IMG:style_emoticons/default/dwarf-1.gif) (IMG:style_emoticons/default/dwarf-1.gif) (IMG:style_emoticons/default/dwarf-1.gif)


Go to the top of the page
  Insert nick Quick quote
+Quote Post
post Apr 17 2021, 14:47:33
Post #4

De Mysteriis Dom Sathanas
**************
Group: Металариец
Posts: 4,801
Releases: 64
From: Doom
On Forums: 15 years 10 months
Thanks: 4285 time(s)
Russian Federation


Неплохая 100500 версия шведодэта. Слушать и тем более оставлять нет желания
Go to the top of the page
  Insert nick Quick quote
+Quote Post
post Dec 20 2021, 00:57:04
Post #5

Мегаманьяк
***********
Group: Металариец
Posts: 1,839
Releases: 10
On Forums: 15 years 4 months
Thanks: 185 time(s)
Germany


Please, re upload.
Go to the top of the page
  Insert nick Quick quote
+Quote Post
post Dec 20 2021, 06:40:20
Post #6

Правь статус, ####!111
**************
Group: Металариец
Posts: 8,968
Releases: 7206
On Forums: 13 years 6 months
Thanks: 126978 time(s)
Italy


QUOTE(deathic @ Dec 20 2021, 00:57:04) *
Please, re upload.

Mediafire link by Samaritianin is still working
Go to the top of the page
  Insert nick Quick quote
+Quote Post

Reply to this topicStart new topic
2 User(s) are reading this topic (2 Guests and 0 Anonymous Users)
0 Members:

 



- Lo-Fi Version Support form
Copyrights and abuse reports form
Time is now: 30th May 2024 - 23:28:46