Welcome Guest ( Log In | Register )

> Legions Of War - Dark Dimensions (2021), Blackened Thrash Metal
post Apr 15 2021, 11:02:06
Post #1

Правь статус, ####!111
**************
Group: Металариец
Posts: 26,644
Releases: 19190
From: Г.Харьков
On Forums: 9 years 2 months
Thanks: 383996 time(s)
Unknown


(IMG:http://metalarea.org/images/audiocovers/2021_Apr/acov_tid349665_thumb.jpg)

*Artist: Legions Of War
*Album: Dark Dimensions
*Year: 2021
*Genre: Blackened Thrash Metal
*Country: Sweden (IMG:http://metalarea.org/forum/style_images/flags/Sweden.png)
*Format: mp3@CBR320kbps
*Size: 96MB

Tracklist:
1. Shot In The Neck 03:36
2. The Mob 03:58
3. Heart Of War 03:35
4. Silent Warfare 03:23
5. The Killer 04:37
6. Dark Dimensions 05:55
7. Save Our Souls 03:38
8. Life Is Burning 04:08
9. Buried Alive 03:48
10. Welcome To The End 05:58
******************************
Total playing time: 42:36




Extended info
C.Stalinorgel Drums (2002-present)
See also: ex-Suicidal Winds, ex-Conspiracy, ex-Mindblaster
Zyklon Vocals, Guitars (2002-present)
Widowreaper Guitars (lead) (2004-present)
Hellwind Bass, Vocals (backing) (2007-present)



Technical info
(IMG:http://metalarea.org/images/spectrogram/2021_Apr/c0f834faea3e7c65540507d420330bd3.png)
Input File: 06 - Dark Dimensions.mp3
Channels : 2
Sample Rate : 44100
Precision : 16-bit
Duration : 00:05:55.04 = 15657440 samples = 26628.3 CDDA sectors
File Size : 14.2M
Bit Rate : 320k
Sample Encoding: MPEG audio (layer I, II or III)
Comments :
Title=Dark Dimensions
Artist=Legions of War
Album=Dark Dimensions
Tracknumber=6
Year=2021
Genre=Metal



Register


Go to the top of the page
  Insert nick Quick quote
+Quote Post
 
Start new topic
Replies (1 - 4)
post Apr 18 2021, 12:51:49
Post #2

0%Tolerance
**********
Group: Металариец
Posts: 1,137
Releases: 0
On Forums: 8 years 10 months
Thanks: 203 time(s)
Unknown


Огонььь, блть!


Thanks:
Go to the top of the page
  Insert nick Quick quote
+Quote Post
post May 10 2021, 12:13:21
Post #3

добрый мизантроп
**************
Group: Металариец
Posts: 2,276
Releases: 1
From: Минск
On Forums: 10 years 8 months
Thanks: 1056 time(s)
Madagascar


Тошнотворное убожество на гламурно пафосных хэви щах


Thanks:
(1) Strid,
Go to the top of the page
  Insert nick Quick quote
+Quote Post
post May 13 2021, 11:31:27
Post #4

0%Tolerance
**********
Group: Металариец
Posts: 1,137
Releases: 0
On Forums: 8 years 10 months
Thanks: 203 time(s)
Unknown


ЦИТАТА(Storky @ May 10 2021, 12:13:21) *
Тошнотворное убожество на гламурно пафосных хэви щах


Гыыы
Не надо тебе в трэшмитал тогда, он в большинстве на таких "гламурно-пафосных щах©". Хотя где здесь гламур, хазэ? "Пафос" стандартный для стиля.
Go to the top of the page
  Insert nick Quick quote
+Quote Post
post May 13 2021, 13:41:55
Post #5

Три Литра
***
Group: Завсегдатай
Posts: 273
Releases: 1
On Forums: 13 years 2 months
Thanks: 106 time(s)
Russian Federation


Тогда не надо писать blackened и вводить людей в заблуждение.


Thanks:
(1) Deze,
Go to the top of the page
  Insert nick Quick quote
+Quote Post

Reply to this topicStart new topic
1 User(s) are reading this topic (1 Guests and 0 Anonymous Users)
0 Members:

 



- Lo-Fi Version Support form
Copyrights and abuse reports form
Time is now: 24th July 2021 - 08:32:18