Welcome Guest ( Log In | Register )

> Aggravator - Unseen Repulsions [ep] (2021), Old School Thrash Metal
post Apr 15 2021, 13:44:26
Post #1

Правь статус, ####!111
**************
Group: Металариец
Posts: 26,375
Releases: 18969
From: Г.Харьков
On Forums: 9 years 1 month
Thanks: 378721 time(s)
Unknown


(IMG:http://metalarea.org/images/audiocovers/2021_Apr/acov_tid349676_thumb.jpg)

*Artist: Aggravator
*Album: Unseen Repulsions [ep]
*Year: 2021
*Genre: Old School Thrash Metal
*Country: United States (IMG:http://metalarea.org/forum/style_images/flags/United%20States.png)
*Format: mp3@CBR320kbps
*Size: 47MB

Tracklist:
1. Unseen Repulsions 03:32
2. Fragmented Identity 04:02
3. Searing Gas Decomposition 03:37
4. Infinite War 03:59
5. Bounty Hunter 02:37
6. Seven Swords 02:45
******************************
Total playing time: 20:32




Extended info
Mike Cortes Drums (2008-present)
Derek Jones Guitars (rhythm) (2008-present), Vocals (2008-present)
Tristan Hernandez Bass (2010-present)
Austin Zettner Guitars (lead) (2018-present)
See also: Æternal Requiem, ex-Imminent Descent


Technical info
(IMG:http://metalarea.org/images/spectrogram/2021_Apr/a24a343f9b864196bf88c51c1b7e3b7a.png)
Input File: 02 Fragmented Identity.mp3
Channels : 2
Sample Rate : 44100
Precision : 16-bit
Duration : 00:04:02.64 = 10700336 samples = 18197.9 CDDA sectors
File Size : 9.71M
Bit Rate : 320k
Sample Encoding: MPEG audio (layer I, II or III)
Comments :
Title=Fragmented Identity
Artist=Aggravator
Album=Unseen Repulsions
Tracknumber=02/06
Year=2021-21-20
Discnumber=1/1



Register


Go to the top of the page
  Insert nick Quick quote
+Quote Post
 
Start new topic
Replies (1 - 5)
post Apr 16 2021, 03:01:12
Post #2

\m/
Group Icon
Group: S-moderation team
Posts: 7,932
Releases: 19
From: Петропавловск-Камчатский
On Forums: 12 years 1 week
Thanks: 7985 time(s)
Russian Federation


Превью качает здорово (IMG:style_emoticons/default/metaler.gif)


Go to the top of the page
  Insert nick Quick quote
+Quote Post
post Apr 16 2021, 12:09:44
Post #3

0%Tolerance
**********
Group: Металариец
Posts: 1,046
Releases: 0
On Forums: 8 years 9 months
Thanks: 190 time(s)
Unknown


Годная колбасня.
Go to the top of the page
  Insert nick Quick quote
+Quote Post
post Apr 17 2021, 17:35:07
Post #4

Common dweller of hell
**************
Group: Металариец
Posts: 3,829
Releases: 12
From: Dnipro
On Forums: 12 years 11 months
Thanks: 1509 time(s)
Ukraine


Известные черти, все альбомы и епишки просто на отлично.
Go to the top of the page
  Insert nick Quick quote
+Quote Post
post Apr 20 2021, 23:11:40
Post #5

Мегаманьяк
***********
Group: Металариец
Posts: 1,886
Releases: 1
On Forums: 6 years 7 months
Thanks: 692 time(s)
Tajikistan


Оболденная эпиха с кучей годного треша и олдскульного дэта на борту. Удивлен
Go to the top of the page
  Insert nick Quick quote
+Quote Post
post Apr 28 2021, 18:05:08
Post #6

Сектант технодро4чер
**************
Group: Металариец
Posts: 5,581
Releases: 143
From: Тимчасово окупована територія
On Forums: 12 years 10 months
Thanks: 5952 time(s)
Ukraine


Чертовски мощно!
Go to the top of the page
  Insert nick Quick quote
+Quote Post

Reply to this topicStart new topic
2 User(s) are reading this topic (2 Guests and 0 Anonymous Users)
0 Members:

 



- Lo-Fi Version Support form
Copyrights and abuse reports form
Time is now: 25th June 2021 - 12:16:36