Welcome Guest ( Log In | Register )

 
Reply to this topicStart new topic
> Superlynx - Electric Temple (2021), Stoner/Psychedelic Doom Metal
post Apr 15 2021, 15:24:52
Post #1

Правь статус, ####!111
**************
Group: Металариец
Posts: 26,335
Releases: 18950
From: Г.Харьков
On Forums: 9 years 1 month
Thanks: 378161 time(s)
Unknown


(IMG:http://metalarea.org/images/audiocovers/2021_Apr/acov_tid349682_thumb.jpg)

*Artist: Superlynx
*Album: Electric Temple
*Year: 2021
*Genre: Stoner/Psychedelic Doom Metal
*Country: Norway (IMG:http://metalarea.org/forum/style_images/flags/Norway.png)
*Format: mp3@CBR320kbps
*Size: 99MB

Tracklist:
1. Rising Flame 06:14
2. Electric Temple 05:13
3. Apocalypse 02:37
4. Moonbather 05:25
5. Sonic Sacrament 02:18
6. Returning Light 04:08
7. Laws of Nature 05:20
8. Then You Move 05:03
9. Siren Sing 02:23
10. May 04:39
******************************
Total playing time: 43:20




Extended info
Pia Isaksen Bass, Vocals
Ole Teigen Drums, Vocals
See also: Midnattsvrede, ex-Morbid Symphony, Loveplanet, ex-Den Saakaldte, ex-Dødheimsgard, ex-Alsvartr (live), ex-Grand Alchemist (live), ex-Invaders (live), ex-Isvind (live), ex-Framferd, ex-Vondthorn
Daniel Bakken Guitars
See also: ex-Gate to Khaos, ex-Magenta


Technical info
(IMG:http://metalarea.org/images/spectrogram/2021_Apr/95aac11cd383a943866755ada3f9a353.png)
Input File: 07 Laws of Nature.mp3
Channels : 2
Sample Rate : 44100
Precision : 16-bit
Duration : 00:05:20.70 = 14142870 samples = 24052.5 CDDA sectors
File Size : 12.8M
Bit Rate : 320k
Sample Encoding: MPEG audio (layer I, II or III)
Comments :
Title=Laws of Nature
Artist=Superlynx
Album=Electric Temple
Tracknumber=7
Year=2021
Genre=Metal



Register


Go to the top of the page
  Insert nick Quick quote
+Quote Post

Reply to this topicStart new topic
1 User(s) are reading this topic (1 Guests and 0 Anonymous Users)
0 Members:

 



- Lo-Fi Version Support form
Copyrights and abuse reports form
Time is now: 22nd June 2021 - 03:00:17