Welcome Guest ( Log In | Register )

> Death Of A Dryad - Hameln (2021), Atmospheric/Dark Metal
post Apr 15 2021, 17:44:37
Post #1

Правь статус, ####!111
**************
Group: Металариец
Posts: 27,349
Releases: 19845
From: Г.Харьков
On Forums: 9 years 4 months
Thanks: 399162 time(s)
Unknown


(IMG:http://metalarea.org/images/audiocovers/2021_Apr/acov_tid349692_thumb.jpg)

*Artist: Death Of A Dryad
*Album: Hameln
*Year: 2021
*Genre: Atmospheric/Dark Metal
*Country: France (IMG:http://metalarea.org/forum/style_images/flags/France.png)
*Format: mp3@CBR320kbps
*Size: 108MB

Tracklist:
01. Enter the Piper 08:40
02. Hameln 07:35
03. Apud Omnes Hostes 08:04
04. Moths to a Flame 02:04
05. Left to Die 07:56
06. Requiem 05:45
07. Freedom Lies 06:44
******************************
Total playing time: 46:48




Extended info


Technical info
(IMG:http://metalarea.org/images/spectrogram/2021_Apr/b69b6618477181d00e453386b87ed014.png)
Input File: 07 - Freedom Lies.mp3
Channels : 2
Sample Rate : 44100
Precision : 16-bit
Duration : 00:06:43.93 = 17813313 samples = 30294.8 CDDA sectors
File Size : 16.3M
Bit Rate : 324k
Sample Encoding: MPEG audio (layer I, II or III)
Comments :
Title=Freedom Lies
Artist=Death of a Dryad
Album=Hameln
Tracknumber=7
Year=2021
Discnumber=1/1



Register


Go to the top of the page
  Insert nick Quick quote
+Quote Post
 
Start new topic
Replies (1 - 8)
post Apr 22 2021, 20:22:19
Post #2

практики шума одухотворяющего
**************
Group: Металариец
Posts: 3,068
Releases: 93
From: Хроник дисмЭмбера
On Forums: 3 years 7 months
Thanks: 4087 time(s)
Russian Federation


Искусно переплетены мелодии фолка, дарквейв и красивые готические гармонии.
Go to the top of the page
  Insert nick Quick quote
+Quote Post
post Apr 22 2021, 20:26:25
Post #3

Ледоруб
**************
Group: Металариец
Posts: 28,736
Releases: 0
From: Санкт-Петербург
On Forums: 12 years 6 days
Thanks: 10340 time(s)
Russian Federation


ЦИТАТА(mirotvorets @ 22nd April 2021 - 22:22:19) *
Искусно переплетены мелодии фолка, дарквейв и красивые готические гармонии.

На что похоже?
Go to the top of the page
  Insert nick Quick quote
+Quote Post
post Apr 22 2021, 20:31:18
Post #4

практики шума одухотворяющего
**************
Group: Металариец
Posts: 3,068
Releases: 93
From: Хроник дисмЭмбера
On Forums: 3 years 7 months
Thanks: 4087 time(s)
Russian Federation


ЦИТАТА(6666666 @ Apr 22 2021, 23:26:25) *
На что похоже?


Dead can Dance ,прямо временами.
Go to the top of the page
  Insert nick Quick quote
+Quote Post
post Apr 22 2021, 20:34:46
Post #5

Ледоруб
**************
Group: Металариец
Posts: 28,736
Releases: 0
From: Санкт-Петербург
On Forums: 12 years 6 days
Thanks: 10340 time(s)
Russian Federation


ЦИТАТА(mirotvorets @ 22nd April 2021 - 22:31:18) *
Dead can Dance ,прямо временами

Спорный для меня ориентир, у них что-то очень да, что-то вообще нет.
Go to the top of the page
  Insert nick Quick quote
+Quote Post
post Apr 22 2021, 20:48:36
Post #6

практики шума одухотворяющего
**************
Group: Металариец
Posts: 3,068
Releases: 93
From: Хроник дисмЭмбера
On Forums: 3 years 7 months
Thanks: 4087 time(s)
Russian Federation


ЦИТАТА(6666666 @ Apr 22 2021, 23:34:46) *
Спорный для меня ориентир, у них что-то очень да, что-то вообще нет.


Периода, когда они фолк стали привлекать.
Go to the top of the page
  Insert nick Quick quote
+Quote Post
post Apr 22 2021, 20:49:28
Post #7

Ледоруб
**************
Group: Металариец
Posts: 28,736
Releases: 0
From: Санкт-Петербург
On Forums: 12 years 6 days
Thanks: 10340 time(s)
Russian Federation


ЦИТАТА(mirotvorets @ 22nd April 2021 - 22:48:36) *
Периода, когда они фолк стали привлекать.

Це плохо.
Go to the top of the page
  Insert nick Quick quote
+Quote Post
post May 30 2021, 15:27:09
Post #8

FOLK METAL FEVER
**************
Group: Металариец
Posts: 2,238
Releases: 6
From: Kyiv
On Forums: 13 years 10 months
Thanks: 294 time(s)
Ukraine


Sopor Aeternus "Es reiten die Toten..." smells
Go to the top of the page
  Insert nick Quick quote
+Quote Post
post Jun 10 2021, 21:37:36
Post #9

Шесть Литров
******
Group: Металариец
Posts: 573
Releases: 0
On Forums: 2 years 4 months
Thanks: 295 time(s)
Ukraine


Концептуальный альбом по мотивам недоброй сказки. Слушать на ночь, при свечах, для усиления эффекта. По настроению похоже на ранние работы Virgin Black, флейта и струнные отсылают к музыке эпохи Ренессанса и Haggard. Интересно слушать каждую песню, и альбом в целом оставляет очень приятное впечатление. Открытие года для меня.


Thanks:
Go to the top of the page
  Insert nick Quick quote
+Quote Post

Reply to this topicStart new topic
1 User(s) are reading this topic (1 Guests and 0 Anonymous Users)
0 Members:

 



- Lo-Fi Version Support form
Copyrights and abuse reports form
Time is now: 17th September 2021 - 14:01:13