Welcome Guest ( Log In | Register )

> И неформату есть предел.

Рэп/хип-хоп/шансон/поп удаляются. Для них есть свои порталы.

> Various Artists - Рокъ-Семейство НОМ. 25 Летъ На Арене (Трибьют НОМ) [compilation] (2012), Rock/Alternative/Punk/Synthpop (D2223)
post Apr 15 2021, 19:39:27
Post #1

Семь Литров
*******
Group: Металариец
Posts: 741
Releases: 32
From: Санкт-Петербург
On Forums: 14 years 11 months
Thanks: 2229 time(s)
Russian Federation


(IMG:http://metalarea.org/images/audiocovers/2021_Apr/acov_tid349700_thumb.jpg)

*Artist: Various Artists
*Album: Рокъ-Семейство НОМ. 25 Летъ На Арене (Трибьют НОМ) [compilation]
*Year: 2012
*Genre: Rock/Alternative/Punk/Synthpop
*Country: Many (IMG:http://metalarea.org/forum/style_images/flags/Many.png)
*Format: mp3@CBR320kbps
*Size: 178MB

Tracklist:
01. Кирпичи - Карлик 03:35
02. НОМ - Посланец вселенского разума 03:25
03. Перкалаба - Любовь инженера 06:03
04. Звездные Воины - ЧП 03:02
05. Spitfire - Jurassic Park 03:42
06. Lesnikov-16 - Марш косморазведчиков 03:57
07. Внезапный Сыч - Ламца-дрица 03:09
08. Михаил Елизаров - Жирные пальцы 02:40
09. Федул Жадный - Нина 03:24
10. Uradsakidogi - Насекомые 04:04
11. Прохор и Пузо - Верлибры 05:03
12. Скворцы Степанова - Автомир 03:02
13. М. Елфимов - Протез 03:24
14. Отомото - УКМ2.012 03:13
15. Дикие Лесные Гитары - Нина-водка 03:38
16. АВИА - Город 04:16
17. Барто - Сенька-Мосгаз 03:49
18. Dzuma feat. Red Haus, special guest Валя Папиросов - Марш-мизантроп (Песня канатоходца) 03:28
19. 2Fingers feat. Алексей Уваров - Колыбельное 02:58
20. Ульи - 7% 03:29
21. Pep-See - Live In Porto Negoro 04:08
******************************
Total playing time: 1:17:29

Extended info
Отличный трибьют великой группе, новые версии популярных хитов. Любителям НОМ, а такие здесь наверняка должны быть, настоятельно рекомендую послушать, если не доводилось.


Technical info
(IMG:http://metalarea.org/images/spectrogram/2021_Apr/c1ea429f3cc173068de424b73d8d7233.png)
Input File: 01 - Кирпичи - Карлик.mp3
Channels : 2
Sample Rate : 44100
Precision : 16-bit
Duration : 00:03:35.08 = 9485072 samples = 16131.1 CDDA sectors
File Size : 8.61M
Bit Rate : 320k
Sample Encoding: MPEG audio (layer I, II or III)
Comments :
Title=Кирпичи: Карлик
Artist=Compilation
Album=Рокъ-семейство НОМ. 25 летъ на арене (Трибьют НОМ)
Tracknumber=01
Year=2012
Genre=Rock



Register


Go to the top of the page
  Insert nick Quick quote
+Quote Post
 
Start new topic
Replies (1 - 1)
post Apr 18 2021, 12:00:01
Post #2

Ёлд ХеллоВяйне
Group Icon
Group: V.I.P
Posts: 31,525
Releases: 144
From: Питер
On Forums: 14 years 6 months
Thanks: 19630 time(s)
Russian Federation


QUOTE(as71 @ 15th April 2021 - 21:39:27) *
трибьют великой группе


Как раз хотел оставить дежурный коммент, что НОМ велик (IMG:style_emoticons/default/dooo.gif)
Go to the top of the page
  Insert nick Quick quote
+Quote Post

Reply to this topicStart new topic
1 User(s) are reading this topic (1 Guests and 0 Anonymous Users)
0 Members:

 



- Lo-Fi Version Support form
Copyrights and abuse reports form
Time is now: 14th May 2021 - 11:51:06