Welcome Guest ( Log In | Register )

> Kwade Droes - Met Onoprechte Deelneming (2021), Black Metal (D4)
post Apr 15 2021, 20:44:37
Post #1

Время Мары
**************
Group: Металариец
Posts: 3,242
Releases: 473
From: Харьков
On Forums: 12 years 1 month
Thanks: 9717 time(s)
Ukraine


(IMG:http://metalarea.org/images/audiocovers/2021_Apr/acov_tid349702_thumb.jpg)

*Artist: Kwade Droes
*Album: Met Onoprechte Deelneming
*Year: 2021
*Genre: Black Metal
*Country: Netherlands (IMG:http://metalarea.org/forum/style_images/flags/Netherlands.png)
*Format: mp3@CBR320kbps
*Size: 80MB

Tracklist:
01. Verkeerde Preek 08:05
02. Synode Van Satan 07:53
03. Na De Gestorrde Uitvaart 07:54
04. Duivelsindrijving 11:01
******************************
Total playing time: 34:53

Technical info
(IMG:http://metalarea.org/images/spectrogram/2021_Apr/0559d802ead6c1c59f4a940ff93f2d92.png)
Input File: 02 - Synode Van Satan.mp3
Channels : 2
Sample Rate : 44100
Precision : 16-bit
Duration : 00:07:52.77 = 20849025 samples = 35457.5 CDDA sectors
File Size : 19.0M
Bit Rate : 321k
Sample Encoding: MPEG audio (layer I, II or III)
Comments :
Title=Synode Van Satan
Artist=Kwade Droes
Album=Met Onoprechte Deelneming
Tracknumber=2
Year=2021
Discnumber=1/1



Register


Go to the top of the page
  Insert nick Quick quote
+Quote Post
 
Start new topic
Replies (1 - 3)
post Apr 16 2021, 06:46:37
Post #2

While Waiting the Worms
**********
Group: Металариец
Posts: 1,336
Releases: 0
On Forums: 7 years 7 months
Thanks: 2024 time(s)
Unknown




Thanks:
(1) Brann,
Go to the top of the page
  Insert nick Quick quote
+Quote Post
post Apr 16 2021, 11:14:33
Post #3

Маньяк
**********
Group: Металариец
Posts: 1,279
Releases: 37
From: великий город Питер
On Forums: 15 years 7 months
Thanks: 2134 time(s)
Russian Federation



кстати на бандкампе у них заявлена Германия....
Go to the top of the page
  Insert nick Quick quote
+Quote Post
post Jul 26 2021, 09:57:48
Post #4

Group: Подсевший
Posts: 24
Releases: 0
On Forums: 12 years 5 months
Thanks: 1 time(s)
Denmark


Thank you for this (IMG:style_emoticons/default/bye.gif)
Go to the top of the page
  Insert nick Quick quote
+Quote Post

Reply to this topicStart new topic
2 User(s) are reading this topic (2 Guests and 0 Anonymous Users)
0 Members:

 



- Lo-Fi Version Support form
Copyrights and abuse reports form
Time is now: 29th July 2021 - 00:50:49