Welcome Guest ( Log In | Register )

> И неформату есть предел.

Рэп/хип-хоп/шансон/поп удаляются. Для них есть свои порталы.

> Deine Lakaien - Dual (2021), Darkwave (D7)
post Apr 17 2021, 17:36:57
Post #1

Семь Литров
*******
Group: Металариец
Posts: 741
Releases: 32
From: Санкт-Петербург
On Forums: 14 years 11 months
Thanks: 2229 time(s)
Russian Federation


(IMG:http://metalarea.org/images/audiocovers/2021_Apr/acov_tid349769_thumb.jpg)

*Artist: Deine Lakaien
*Album: Dual
*Year: 2021
*Genre: Darkwave
*Country: Germany (IMG:http://metalarea.org/forum/style_images/flags/Germany.png)
*Format: mp3@CBR320kbps
*Size: 205MB

Tracklist:
CD1:
01. Because Of Because 04:21
02. Sick Cinema 05:09
03. In Your Eyes 04:22
04. Snow 04:54
05. Happy Man 04:19
06. Run 03:56
07. Les Oiseaux 04:37
08. Unknown Friend 03:52
09. Qubit Man 04:24
10. Someone To Come Home To 05:06
CD2:
01. Because The Night (Patti Smith Cover) 03:39
02. Spoon (Can Cover) 04:50
03. The Walk (The Cure Cover) 04:36
04. Dust In The Wind (Kansas Cover) 03:20
05. Suspended In Gaffa (Kate Bush Cover) 03:55
06. La Chanson Des Vieux Amants (Jacques Brel Cover) 04:14
07. Black Hole Sun (Soundgarden Cover) 05:16
08. Lady D'Arbanville (Cat Stevens Cover) 04:21
09. Song Of The Flea (Modest Mussorgsky Cover) 03:21
10. My December (Linkin Park Cover) 04:39
******************************
Total playing time: 1:27:13



Extended info
Deine Lakaien are a German cultural icon. With their 10th studio full-length, "Dual", classically-educated composer and pianist Ernst Horn and vocalist extraordinaire Alexander Veljanov present a conceptual double album, which connects both full-lengths by a double reference.


Technical info
(IMG:http://metalarea.org/images/spectrogram/2021_Apr/ae552ab4e2d22636c88f9f09926b0e76.png)
Input File: 01 - Because Of Because.mp3
Channels : 2
Sample Rate : 44100
Precision : 16-bit
Duration : 00:04:20.80 = 11501192 samples = 19559.9 CDDA sectors
File Size : 10.4M
Bit Rate : 320k
Sample Encoding: MPEG audio (layer I, II or III)
Comments :
Title=Because Of Because
Artist=Deine Lakaien
Album=Dual CD1
Tracknumber=01
Year=2021
Genre=Darkwave



Register


Go to the top of the page
  Insert nick Quick quote
+Quote Post
 
Start new topic
Replies (1 - 3)
post Apr 24 2021, 08:24:51
Post #2

####!111
**************
Group: Металариец
Posts: 4,372
Releases: 130
From: The Mountain Of DOOM
On Forums: 13 years 7 months
Thanks: 6118 time(s)
Russian Federation


Оргазм для ушей (IMG:style_emoticons/default/11.gif)

Аранжировки (IMG:style_emoticons/default/spitggis0.gif) (хотя от каверна на My December ожидал большего)
Голос вокалиста как всегда (IMG:style_emoticons/default/19.gif)

This post has been edited by Un4given: Apr 24 2021, 10:00:03
Go to the top of the page
  Insert nick Quick quote
+Quote Post
post Apr 24 2021, 12:07:03
Post #3

Ледоруб
**************
Group: Металариец
Posts: 27,949
Releases: 0
From: Санкт-Петербург
On Forums: 11 years 8 months
Thanks: 10113 time(s)
Russian Federation


Зарубка.
Go to the top of the page
  Insert nick Quick quote
+Quote Post
post Apr 30 2021, 19:20:59
Post #4

Семь Литров
*******
Group: Металариец
Posts: 741
Releases: 32
From: Санкт-Петербург
On Forums: 14 years 11 months
Thanks: 2229 time(s)
Russian Federation


Голос отменный, но вообще пока как-то ровно, без особого восторга, еще буду слушать. Раньше очень нравился April Skies и на более ранних альбомах некоторые вещи прямо очень даже.
Go to the top of the page
  Insert nick Quick quote
+Quote Post

Reply to this topicStart new topic
1 User(s) are reading this topic (1 Guests and 0 Anonymous Users)
0 Members:

 



- Lo-Fi Version Support form
Copyrights and abuse reports form
Time is now: 14th May 2021 - 12:17:41