Welcome Guest ( Log In | Register )

Объявления

* gmail.com упорно продолжает считать почту с нас "unsolicited" и отбивает в том числе и письма активации, поэтому просьба использовать альтернативные почтовые ящики.
------------
* gmail.com continues reject all mail from us as "unsolicited" (activation mails too) therefore please use alternate mail servers.
> Seltsame Erden - Turmfall [ep] (2020), Black Metal
post Apr 17 2021, 23:23:29
Post #1

Правь статус, 616
**************
Group: Металариец
Posts: 10,800
Releases: 8797
From: 55°35’N 38°08’E
On Forums: 15 years 11 months
Thanks: 156734 time(s)
Russian Federation


(IMG:https://metalarea.org/images/audiocovers/2021_Apr/acov_tid349777_thumb.jpg)

*Artist: Seltsame Erden
*Album: Turmfall [ep]
*Year: 2020
*Genre: Black Metal
*Country: Germany (IMG:https://metalarea.org/forum/style_images/flags/Germany.png)
*Format: mp3@CBR320kbps
*Size: 48MB

Tracklist:
1. I 07:11
2. II 04:33
3. III 07:56
******************************
Total playing time: 19:40

Homepage

Technical info
(IMG:https://metalarea.org/images/spectrogram/2021_Apr/763ee18d164b725ff797a0550c10788b.png)
Input File: 01 I.mp3
Channels : 2
Sample Rate : 44100
Precision : 16-bit
Duration : 00:07:11.36 = 19022976 samples = 32352 CDDA sectors
File Size : 17.4M
Bit Rate : 322k
Sample Encoding: MPEG audio (layer I, II or III)
Comments :
Title=I
Artist=Seltsame Erden
Album=Turmfall
Tracknumber=1/3
Year=2020
Genre=Black Metal



Register


Go to the top of the page
  Insert nick Quick quote
+Quote Post
 
Start new topic
Replies (1 - 1)
post Jun 22 2021, 18:45:06
Post #2

Правь статус, 616
**************
Group: Металариец
Posts: 10,800
Releases: 8797
From: 55°35’N 38°08’E
On Forums: 15 years 11 months
Thanks: 156734 time(s)
Russian Federation



Go to the top of the page
  Insert nick Quick quote
+Quote Post

Reply to this topicStart new topic
1 User(s) are reading this topic (1 Guests and 0 Anonymous Users)
0 Members:

 



- Lo-Fi Version Support form
Copyrights and abuse reports form
Time is now: 14th June 2024 - 06:45:01