Welcome Guest ( Log In | Register )

> Skeptikon - Inner Eschaton (2021), Blackened Death Metal
post Apr 18 2021, 20:16:27
Post #1

Время Мары
**************
Group: Металариец
Posts: 3,242
Releases: 473
From: Харьков
On Forums: 12 years 1 month
Thanks: 9717 time(s)
Ukraine


(IMG:http://metalarea.org/images/audiocovers/2021_Apr/acov_tid349806_thumb.jpg)

*Artist: Skeptikon
*Album: Inner Eschaton
*Year: 2021
*Genre: Blackened Death Metal
*Country: France (IMG:http://metalarea.org/forum/style_images/flags/France.png)
*Format: mp3@CBR320kbps
*Size: 103MB

Tracklist:
01. Subliminal Hypnosis
02. A Dark Trip
03. Voices
04. Eschaton
05. Chemical Straitjacket
06. Vicious Catalyst
07. Dimension D
08. Archontic Ending
******************************
Total playing time: 41:42

Technical info
(IMG:http://metalarea.org/images/spectrogram/2021_Apr/0d3367cf2514e92b2276de9ac09fc9ff.png)
Input File: 02. A Dark Trip.mp3
Channels : 2
Sample Rate : 44100
Precision : 16-bit
Duration : 00:05:46.09 = 15262657 samples = 25956.9 CDDA sectors
File Size : 14.3M
Bit Rate : 330k
Sample Encoding: MPEG audio (layer I, II or III)
Comments :
Title=A Dark Trip
Artist=Skeptikon
Album=Inner Eschaton (320)
Tracknumber=02
Year=2021
Genre=Metal



Register


Go to the top of the page
  Insert nick Quick quote
+Quote Post
 
Start new topic
Replies (1 - 4)
post Apr 20 2021, 13:04:40
Post #2

Добрый язычник
*********
Group: Металариец
Posts: 943
Releases: 11
From: Санкт-Петербург
On Forums: 15 years 7 months
Thanks: 315 time(s)
Russian Federation


https://www.youtube.com/watch?v=_Lzs5vpGukw
Go to the top of the page
  Insert nick Quick quote
+Quote Post
post Apr 21 2021, 17:25:25
Post #3

Common dweller of hell
**************
Group: Металариец
Posts: 3,879
Releases: 12
From: Dnipro
On Forums: 13 years 2 weeks
Thanks: 1522 time(s)
Ukraine




Thanks:
Go to the top of the page
  Insert nick Quick quote
+Quote Post
post May 23 2021, 13:21:20
Post #4

Old School Metal
**************
Group: Металариец
Posts: 3,950
Releases: 0
From: г. Минск
On Forums: 12 years 4 months
Thanks: 9274 time(s)
Belarus



Lossless: FLAC (tracks)
Register
Go to the top of the page
  Insert nick Quick quote
+Quote Post
post May 30 2021, 16:16:05
Post #5

Правь статус, ####!111
**************
Group: Металариец
Posts: 5,001
Releases: 441
From: MoscoW
On Forums: 14 years 7 months
Thanks: 7211 time(s)
Russian Federation


DEATH ERECTION Records:
Go to the top of the page
  Insert nick Quick quote
+Quote Post

Reply to this topicStart new topic
1 User(s) are reading this topic (1 Guests and 0 Anonymous Users)
0 Members:

 



- Lo-Fi Version Support form
Copyrights and abuse reports form
Time is now: 26th July 2021 - 21:48:18