Welcome Guest ( Log In | Register )

Объявления

* gmail.com упорно продолжает считать почту с нас "unsolicited" и отбивает в том числе и письма активации, поэтому просьба использовать альтернативные почтовые ящики.
------------
* gmail.com continues reject all mail from us as "unsolicited" (activation mails too) therefore please use alternate mail servers.
> Sandworm & Kūka'ilimoku - Sandworm/Kūka'ilimoku [split] (2021), Raw Black Metal | Raw Black Metal/Punk (D5)(D4)
post Apr 18 2021, 21:06:49
Post #1

Правь статус, 616
**************
Group: Металариец
Posts: 10,800
Releases: 8797
From: 55°35’N 38°08’E
On Forums: 15 years 11 months
Thanks: 156734 time(s)
Russian Federation


(IMG:https://metalarea.org/images/audiocovers/2021_Apr/acov_tid349808_thumb.jpg)

*Artist: Sandworm & Kūka'ilimoku
*Album: Sandworm/Kūka'ilimoku [split]
*Year: 2021
*Genre: Raw Black Metal | Raw Black Metal/Punk
*Country: United States (IMG:https://metalarea.org/forum/style_images/flags/United%20States.png) | United States (IMG:https://metalarea.org/forum/style_images/flags/United%20States.png)
*Format: mp3@CBR320kbps
*Size: 67MB

Tracklist:
Sandworm:
1.Kanpurs 04:17
2.Vohn Angkor 03:02
3.Merkra 04:09
4.Tryn Sol Nada 03:22
Kūka'ilimoku:
5.Distasteful Makiki Nest 03:16
6.Red Plus Yellow 02:27
7.Negative Pi'ikoi 02:50
8.Too Many Legs 02:49
9.Plenty Legs 03:32
******************************
Total playing time: 29:44




Technical info
(IMG:https://metalarea.org/images/spectrogram/2021_Apr/3e9dc443068933157f57db7590ec8705.png)
Input File: 01 Sandworm - Kanpurs.mp3
Channels : 2
Sample Rate : 44100
Precision : 16-bit
Duration : 00:04:17.19 = 11342167 samples = 19289.4 CDDA sectors
File Size : 10.4M
Bit Rate : 323k
Sample Encoding: MPEG audio (layer I, II or III)
Comments :
Title=Kanpurs
Artist=Sandworm
Album=Sandworm​/​Kūka’ilimoku Split
Tracknumber=1
Year=2021
Genre=Black Metal



Register


Go to the top of the page
  Insert nick Quick quote
+Quote Post
 
Start new topic
Replies (1 - 1)
post Oct 18 2022, 19:11:32
Post #2

Правь статус, 616
**************
Group: Металариец
Posts: 10,800
Releases: 8797
From: 55°35’N 38°08’E
On Forums: 15 years 11 months
Thanks: 156734 time(s)
Russian Federation


CBR320kbps

Register


Thanks:
Go to the top of the page
  Insert nick Quick quote
+Quote Post

Reply to this topicStart new topic
1 User(s) are reading this topic (1 Guests and 0 Anonymous Users)
0 Members:

 



- Lo-Fi Version Support form
Copyrights and abuse reports form
Time is now: 14th June 2024 - 07:52:42