Welcome Guest ( Log In | Register )

> Adalwolf - Christenfeind (2019), Black Metal (D)
post Apr 20 2021, 21:09:47
Post #1

Пять Литров
*****
Group: Металариец
Posts: 431
Releases: 73
From: italy
On Forums: 12 years 11 months
Thanks: 1640 time(s)
Italy


(IMG:http://metalarea.org/images/audiocovers/2021_Apr/acov_tid349866_thumb.jpg)

*Artist: Adalwolf
*Album: Christenfeind
*Year: 2019
*Genre: Black Metal
*Country: Germany (IMG:http://metalarea.org/forum/style_images/flags/Germany.png)
*Format: mp3@CBR320kbps
*Size: 129MB

Tracklist:
1. Dies Irae 05:22
2. Ihr seid die Seuche, ... 07:15
3. Gequälte Kinder Gottes (Paedophilia Erotica) 09:53
4. Misanthropie 07:35
5. Christenfeind 08:07
6. Virus Christ 06:52
7. Ausklang 03:16
8. Misanthrope (Demo version) 05:21
9. Nacht Des Untergangs (Demo version) 03:10
******************************
Total playing time: 56:51



Technical info
(IMG:http://metalarea.org/images/spectrogram/2021_Apr/4c1d796f2a133ddc9c6ed978efb695d0.png)
Input File: Dies Irae.mp3
Channels : 2
Sample Rate : 44100
Precision : 16-bit
Duration : 00:05:21.88 = 14194688 samples = 24140.6 CDDA sectors
File Size : 13.0M
Bit Rate : 322k
Sample Encoding: MPEG audio (layer I, II or III)
Comments :
Title=Dies Irae
Artist=Adalwolf
Album=Christenfeind
Tracknumber=1
Year=2019
Genre=Black Metal



Register


Go to the top of the page
  Insert nick Quick quote
+Quote Post
 
Start new topic
Replies (1 - 3)
post Apr 21 2021, 20:24:46
Post #2

Пять Литров
*****
Group: Металариец
Posts: 414
Releases: 18
On Forums: 7 years 9 months
Thanks: 752 time(s)
Iceland


QUOTE(rickzammuto @ Apr 21 2021, 17:52:41) *
Note that the song order on the Mediafire download is not the same as the header at the top of the page. The tracks are instead in alphabetical order, until you click the Modified column inside the Rar.


Re-tagged (sorted numerical and grammatically corrected) and re-uploaded:

Register


Go to the top of the page
  Insert nick Quick quote
+Quote Post
post Apr 22 2021, 15:43:40
Post #3

0%Tolerance
**********
Group: Металариец
Posts: 1,045
Releases: 0
On Forums: 8 years 9 months
Thanks: 188 time(s)
Unknown


П.издатая блекуха.
Go to the top of the page
  Insert nick Quick quote
+Quote Post
post Apr 30 2021, 16:44:57
Post #4

Common dweller of hell
**************
Group: Металариец
Posts: 3,827
Releases: 12
From: Dnipro
On Forums: 12 years 11 months
Thanks: 1507 time(s)
Ukraine


ЦИТАТА(Vitald @ Apr 22 2021, 17:43:40) *
П.издатая блекуха.

Согласен (IMG:style_emoticons/default/crazy.gif)
Go to the top of the page
  Insert nick Quick quote
+Quote Post

Reply to this topicStart new topic
2 User(s) are reading this topic (2 Guests and 0 Anonymous Users)
0 Members:

 



- Lo-Fi Version Support form
Copyrights and abuse reports form
Time is now: 20th June 2021 - 22:33:04