Welcome Guest ( Log In | Register )

> И неформату есть предел.

Рэп/хип-хоп/шансон/поп удаляются. Для них есть свои порталы.

> Liv Kristine - Have Courage Dear Heart [ep] (2021), Melodic Gothic Rock (D7)
post Apr 20 2021, 21:43:51
Post #1

Правь статус, ####!111
**************
Group: Металариец
Posts: 48,732
Releases: 822
On Forums: 11 years 11 months
Thanks: 43172 time(s)
Russian Federation


(IMG:http://metalarea.org/images/audiocovers/2021_Apr/acov_tid349867_thumb.jpg)

*Artist: Liv Kristine
*Album: Have Courage Dear Heart [ep]
*Year: 2021
*Genre: Melodic Gothic Rock
*Country: Norway (IMG:http://metalarea.org/forum/style_images/flags/Norway.png)
*Format: mp3@CBR320kbps
*Size: 55MB

Tracklist:
1. Serenity 04:34
2. Have Courage Dear Heart 03:41
3. Skylight 04:59
4. Gravity 04:44
5. Skylight Cathedral 04:56
******************************
Total playing time: 22:54

(IMG:http://metalarea.org/images/youtube.png)

Technical info
(IMG:http://metalarea.org/images/spectrogram/2021_Apr/cadbff6e23b6439660e00016bdc7e205.png)
Input File: 01 Serenity.mp3
Channels : 2
Sample Rate : 44100
Precision : 16-bit
Duration : 00:04:34.15 = 12089883 samples = 20561 CDDA sectors
File Size : 11.5M
Bit Rate : 337k
Sample Encoding: MPEG audio (layer I, II or III)
Comments :
Title=Serenity
Artist=Liv Kristine
Album=Have Courage Dear Heart
Tracknumber=1/5
Year=2021
Genre=Symphonic Gothic Metal
Discnumber=1/1



Register


Go to the top of the page
  Insert nick Quick quote
+Quote Post
 
Start new topic
Replies (1 - 5)
post Apr 21 2021, 16:13:48
Post #2

Правь статус, ####!111
**************
Group: Металариец
Posts: 48,732
Releases: 822
On Forums: 11 years 11 months
Thanks: 43172 time(s)
Russian Federation


Очень неплохо! Красивый голос и мелодии приятные.


Thanks:
Go to the top of the page
  Insert nick Quick quote
+Quote Post
post Apr 21 2021, 16:30:26
Post #3

Утюг гладкий - 1 штуг.
***********
Group: Металариец
Posts: 1,566
Releases: 0
From: н.п. Большие Утюги
On Forums: 8 years 1 month
Thanks: 510 time(s)
Russian Federation


Простенько и незамысловато. На троечку, может быть. До старого ТоТ далеконько. В ВК послушал, фоном правда. (IMG:style_emoticons/default/9.gif)
Go to the top of the page
  Insert nick Quick quote
+Quote Post
post Apr 22 2021, 12:14:45
Post #4

Правь статус, ####!111
**************
Group: Металариец
Posts: 48,732
Releases: 822
On Forums: 11 years 11 months
Thanks: 43172 time(s)
Russian Federation


ЦИТАТА(Utugg @ Apr 21 2021, 19:30:26) *
До старого ТоТ далеконько.


Так музыка у неё уже давно другая и далеко не самая плохая.
Go to the top of the page
  Insert nick Quick quote
+Quote Post
post Apr 22 2021, 12:20:15
Post #5

Ледоруб
**************
Group: Металариец
Posts: 27,949
Releases: 0
From: Санкт-Петербург
On Forums: 11 years 8 months
Thanks: 10113 time(s)
Russian Federation


Мало комментариев.
Go to the top of the page
  Insert nick Quick quote
+Quote Post
post Apr 25 2021, 11:05:56
Post #6

Два Литра
**
Group: Завсегдатай
Posts: 156
Releases: 0
On Forums: 12 years 7 months
Thanks: 128 time(s)
Russian Federation


Качнул "для галочки", но оказалось на удивление неплохо, а местами так и хорошо. Не очень доставил только первый трек, во всех остальных имелись приятные моменты. Переслушивать может даже и не буду, но рад за Лив, что находит в себе силы продолжать жить и творить (причём не "абы что как факт", а далеко не самую плохую музыку).
Go to the top of the page
  Insert nick Quick quote
+Quote Post

Reply to this topicStart new topic
1 User(s) are reading this topic (1 Guests and 0 Anonymous Users)
0 Members:

 



- Lo-Fi Version Support form
Copyrights and abuse reports form
Time is now: 14th May 2021 - 12:13:36