Welcome Guest ( Log In | Register )

> Forum rules / Правила раздела

Here go releases which can't go to New releases forums due lack of information, stolen links or incorrect data and just founded in other sites links with minimum info. Reissue of this releases through Add release form with added/corrected data, info and own links highly welcomed.

Сюда уходят релизы, не пропущенные в основные релизные форумы по причинам отсутствия, недостаточности или неверности/некорректности сопровождающей информации, содержащие ссылки, указывающие на файлы, залитые не автором темы, а так же просто найденные где-то ссылки с минимумом информации. Переоформление тем отсюда через форму Добавления релиза с перезаливкой ссылок крайне приветствуется.

 
Reply to this topicStart new topic
> Vulture Lord - Blasphemous Exorcisms [compilation] (2014), Black/Thrash Metal (D)
post Apr 21 2021, 05:15:56
Post #1

Правь статус, ####!111
**************
Group: Металариец
Posts: 7,377
Releases: 165
From: URUGUAY
On Forums: 14 years 8 months
Thanks: 21805 time(s)
Uruguay


(IMG:http://metalarea.org/images/audiocovers/2021_Apr/acov_tid349873_thumb.jpg)

*Artist: Vulture Lord
*Album: Blasphemous Exorcisms [compilation]
*Year: 2014
*Genre: Black/Thrash Metal
*Country: Norway (IMG:http://metalarea.org/forum/style_images/flags/Norway.png)
*Format: mp3@CBR320kbps
*Size: 100MB

Tracklist:
01 - Bloodstained Ritualknives (3:04)
02 - Awakening the Warhorde (3:41)
03 - Lord of Vice (Deliverance cover) (2:32)
04 - Storming with Vengeance (2:47)
05 - The Rite of Satan (2:52)
06 - Blodhemn (1:19)
07 - Churchburner (1:50)
08 - Disciple of Death (4:46)
09 - Deathfuck (3:10)
10 - Prelude to the Second Holocaust (1:38)
11 - Unholy Bloodlust (3:53)
12 - Storming with Vengeance (2:41)
13 - Hark ! The Hymns of War (3:31)
14 - Riding the Demon (3:32)
15 - Riding the Demon (Rehearsal) (3:27)
******************************
Total playing time: 44:43

Extended info
Track 1: unreleased track (the last Vulture Lord track with Nefas), 2010.
Tracks 2-5: from the "Blasphemy" 7" EP, 2006.
Track 6: bonus track from the LP version of "Profane Prayer", 2003.
Tracks 7-9: unreleased demo tape "Desire for the Dead", 1998.
Tracks 10-14: "Exorcism Of The Holy Ghost" demo tape, 1997.
Track 15: unreleased rehearsal track (the very first Vulture Lord track), 1996.


Technical info
(IMG:http://metalarea.org/images/spectrogram/2021_Apr/01e7fa02cafe0ff4cfa10c04c64dc8d8.png)
Input File: 02. Awakening the Warhorde.mp3
Channels : 2
Sample Rate : 44100
Precision : 16-bit
Duration : 00:03:41.40 = 9763872 samples = 16605.2 CDDA sectors
File Size : 8.91M
Bit Rate : 322k
Sample Encoding: MPEG audio (layer I, II or III)
Comments :
Title=Awakening the Warhorde
Artist=Vulture Lord
Album=Blasphemous Exorcisms
Tracknumber=02
Year=2014
Genre=Black Metal



Register


Go to the top of the page
  Insert nick Quick quote
+Quote Post

Reply to this topicStart new topic
2 User(s) are reading this topic (2 Guests and 0 Anonymous Users)
0 Members:

 



- Lo-Fi Version Support form
Copyrights and abuse reports form
Time is now: 22nd June 2021 - 03:18:53