Welcome Guest ( Log In | Register )

> Whinlatter - Cumbria Be My Grave [ep] (2021), Black Metal
post Apr 21 2021, 11:51:59
Post #1

Правь статус, ####!111
**************
Group: Металариец
Posts: 27,365
Releases: 19855
From: Г.Харьков
On Forums: 9 years 4 months
Thanks: 399878 time(s)
Unknown


(IMG:https://metalarea.org/images/audiocovers/2021_Apr/acov_tid349876_thumb.jpg)

*Artist: Whinlatter
*Album: Cumbria Be My Grave [ep]
*Year: 2021
*Genre: Black Metal
*Country: United Kingdom (IMG:https://metalarea.org/forum/style_images/flags/United%20Kingdom.png)
*Format: mp3@CBR320kbps
*Size: 57MB

Tracklist:
1. Sunkenkirk 04:19
2. The Shadow Over Black Combe 04:36
3. Nightfall Over Cumbria 04:51
4. Duddon Estuary III (On Duddon Marsh) 04:30
5. Cumbria Be My Grave II 03:10
6. Nightfall Over Cumbria II 03:41
******************************
Total playing time: 25:07




Extended info
Hrafn Everything (2020-present)
See also: Glaramara, Helvellyn, Morte Lune, Nefarious Dusk, Skiddaw, Thy Dying Light, Torver, Úlfarr, Volition, ex-Atra Mors, ex-Voidness, ex-Baalberith, ex-Mørktår


Technical info
(IMG:https://metalarea.org/images/spectrogram/2021_Apr/01dfebad62f0024c53f21f86b7b9da06.png)
Input File: 03 - Nightfall Over Cumbria.mp3
Channels : 2
Sample Rate : 48000
Precision : 16-bit
Duration : 00:04:51.01 = 13968576 samples ~ 21825.9 CDDA sectors
File Size : 11.6M
Bit Rate : 320k
Sample Encoding: MPEG audio (layer I, II or III)
Comments :
Title=Nightfall Over Cumbria
Artist=Whinlatter
Album=Cumbria Be My Grave
Tracknumber=3
Year=2021
Genre=Black Metal



Register

Register


Go to the top of the page
  Insert nick Quick quote
+Quote Post
 
Start new topic
Replies (1 - 2)
post Apr 23 2021, 19:44:50
Post #2

Мегаманьяк
***********
Group: Металариец
Posts: 1,519
Releases: 0
From: Canada
On Forums: 8 years 10 months
Thanks: 946 time(s)
Canada


The new SATANIC WARMASTER! (IMG:style_emoticons/default/true_black.gif)
Go to the top of the page
  Insert nick Quick quote
+Quote Post
post May 13 2021, 11:23:38
Post #3

добрый мизантроп
**************
Group: Металариец
Posts: 2,368
Releases: 1
From: Менск
On Forums: 10 years 10 months
Thanks: 1075 time(s)
Madagascar


Great classic calm BM (IMG:style_emoticons/default/9.gif) (IMG:style_emoticons/default/true_black.gif)
Go to the top of the page
  Insert nick Quick quote
+Quote Post

Reply to this topicStart new topic
1 User(s) are reading this topic (1 Guests and 0 Anonymous Users)
0 Members:

 



- Lo-Fi Version Support form
Copyrights and abuse reports form
Time is now: 19th September 2021 - 18:38:53