Welcome Guest ( Log In | Register )

Объявления

* gmail.com упорно продолжает считать почту с нас "unsolicited" и отбивает в том числе и письма активации, поэтому просьба использовать альтернативные почтовые ящики.
------------
* gmail.com continues reject all mail from us as "unsolicited" (activation mails too) therefore please use alternate mail servers.
> Helslave - From The Sulphur Depths (2021), Old School Death Metal
post Apr 22 2021, 12:57:00
Post #1

Правь статус, ####!111
**************
Group: Металариец
Posts: 35,994
Releases: 26829
From: Г.Харьков
On Forums: 12 years 3 weeks
Thanks: 581868 time(s)
Ukraine


(IMG:https://metalarea.org/images/audiocovers/2021_Apr/acov_tid349918_thumb.jpg)

*Artist: Helslave
*Album: From The Sulphur Depths
*Year: 2021
*Genre: Old School Death Metal
*Country: Italy (IMG:https://metalarea.org/forum/style_images/flags/Italy.png)
*Format: mp3@CBR320kbps
*Size: 86MB

Tracklist:
1. From the Sulphur Depths
2. Unholy Graves
3. Thrive in Blasphemy
4. Perpetual Damnation
5. Last Nail in the Coffin
6. Thy Will Be Done
7. Funereal Lust
8. Desecration
9. Rotting Pile of Flesh
10. The Sentence of the Living
******************************
Total playing time: 36:59




Extended info
Jari Sgarlato Guitars
Francesco Comerci Drums
Luca Riccardelli Bass
Diego Laino Vocals
Marco Benedetti Guitars


Technical info
(IMG:https://metalarea.org/images/spectrogram/2021_Apr/7d7e60c6436af8cc1786436a44e94fc1.png)
Input File: 08 - Desecration.mp3
Channels : 2
Sample Rate : 44100
Precision : 16-bit
Duration : 00:04:49.00 = 12744900 samples = 21675 CDDA sectors
File Size : 11.8M
Bit Rate : 326k
Sample Encoding: MPEG audio (layer I, II or III)
Comments :
Title=Desecration
Artist=Helslave
Album=From The Sulphur Depths
Tracknumber=8
Year=2021-23-04
Discnumber=1



Register


Go to the top of the page
  Insert nick Quick quote
+Quote Post
 
Start new topic
Replies (1 - 2)
post Apr 23 2021, 02:44:59
Post #2

Правь статус, ####!111
**************
Group: Металариец
Posts: 35,994
Releases: 26829
From: Г.Харьков
On Forums: 12 years 3 weeks
Thanks: 581868 time(s)
Ukraine


FLAC (Tracks) 287 mb
Register


Go to the top of the page
  Insert nick Quick quote
+Quote Post
post Apr 24 2021, 22:59:31
Post #3

Crush The Enemies
**************
Group: Металариец
Posts: 4,337
Releases: 0
From: Moscow
On Forums: 14 years 8 months
Thanks: 2818 time(s)
Russian Federation



BLOODBATH-овские пляски в АДОВОМ угаре преисподни с жиРРРным гроулом у штурвала! (IMG:style_emoticons/default/metaler.gif) (IMG:style_emoticons/default/metaler.gif) (IMG:style_emoticons/default/metaler.gif)

P.S УДАРНО-БРОНЕБОЙНЫЙ релиз!!! (IMG:style_emoticons/default/dwarf-1.gif) (IMG:style_emoticons/default/dwarf-1.gif) (IMG:style_emoticons/default/dwarf-1.gif)


Thanks:
Go to the top of the page
  Insert nick Quick quote
+Quote Post

Reply to this topicStart new topic
2 User(s) are reading this topic (2 Guests and 0 Anonymous Users)
0 Members:

 



- Lo-Fi Version Support form
Copyrights and abuse reports form
Time is now: 30th May 2024 - 23:26:02