Welcome Guest ( Log In | Register )

> Ulvehyrde - Englemakersken (2021), Black Metal
post Apr 22 2021, 15:35:59
Post #1

Правь статус, ####!616
**************
Group: Металариец
Posts: 6,424
Releases: 4901
From: 55°35’N 38°08’E
On Forums: 12 years 11 months
Thanks: 90549 time(s)
Unknown


(IMG:https://metalarea.org/images/audiocovers/2021_Apr/acov_tid349930_thumb.jpg)

*Artist: Ulvehyrde
*Album: Englemakersken
*Year: 2021
*Genre: Black Metal
*Country: Norway (IMG:https://metalarea.org/forum/style_images/flags/Norway.png)
*Format: mp3@CBR320kbps
*Size: 98MB

Tracklist:
1. Jarlen 05:56
2. Disippelen 05:20
3. Likbålet 04:00
4. Englemakersken 03:57
5. Dødsuret 05:49
6. Skarpretteren 04:55
7. Diabolisten 04:04
8. Svartbækken 08:30
******************************
Total playing time: 42:31




Technical info
(IMG:https://metalarea.org/images/spectrogram/2021_Apr/a60ef419ad42822b44b446fa7375c1c5.png)
Input File: 01 - Jarlen.mp3
Channels : 2
Sample Rate : 44100
Precision : 16-bit
Duration : 00:05:56.18 = 15707362 samples = 26713.2 CDDA sectors
File Size : 14.4M
Bit Rate : 323k
Sample Encoding: MPEG audio (layer I, II or III)
Comments :
Title=Jarlen
Artist=Ulvehyrde
Album=Englemakersken
Tracknumber=1
Year=2021
Genre=Black Metal
Discnumber=1/1



Register

Register


Go to the top of the page
  Insert nick Quick quote
+Quote Post
 
Start new topic
Replies (1 - 5)
post Apr 23 2021, 02:11:47
Post #2

\m/
Group Icon
Group: S-moderation team
Posts: 7,932
Releases: 19
From: Петропавловск-Камчатский
On Forums: 12 years 1 week
Thanks: 7984 time(s)
Russian Federation


Added links by Samaritianin


Thanks:
(1) Occultas,
Go to the top of the page
  Insert nick Quick quote
+Quote Post
post Apr 23 2021, 10:29:02
Post #3

0%Tolerance
**********
Group: Металариец
Posts: 1,046
Releases: 0
On Forums: 8 years 9 months
Thanks: 190 time(s)
Unknown


Мрачняк годный.


Thanks:
Go to the top of the page
  Insert nick Quick quote
+Quote Post
post Apr 23 2021, 13:13:47
Post #4

Правь статус, ####!111
**************
Group: Металариец
Posts: 48,888
Releases: 834
On Forums: 12 years 3 weeks
Thanks: 43669 time(s)
Russian Federation


Банальная скукота.
Go to the top of the page
  Insert nick Quick quote
+Quote Post
post Apr 23 2021, 13:51:04
Post #5

De Mysteriis Dom Sathanas
**************
Group: Металариец
Posts: 4,228
Releases: 63
From: Doom
On Forums: 12 years 11 months
Thanks: 3627 time(s)
Russian Federation


Ага, что-то есть в этой группе. По крайней мере прослушать нужно, а там уже решать (IMG:style_emoticons/default/25.gif)
Прослушал - достойная группа, вокал, какой я люблю. Поют на норвежском - это тоже плюс. Музыка в духе замедленного Колда/Тулуса, ну и музыканты, не самые последние люди на норвежской бм сцене. Из песен особенно выделю Svartbækken

This post has been edited by RUSP73: Apr 24 2021, 15:12:33


Thanks:
Go to the top of the page
  Insert nick Quick quote
+Quote Post
post Apr 24 2021, 03:10:15
Post #6

кручу наждак
**************
Group: Металариец
Posts: 5,005
Releases: 104
From: Самара
On Forums: 11 years 1 month
Thanks: 4051 time(s)
Russian Federation


Давно не слышал из Норвегии чего-то, настолько приятно ложащегося на слух.


Thanks:
Go to the top of the page
  Insert nick Quick quote
+Quote Post

Reply to this topicStart new topic
2 User(s) are reading this topic (2 Guests and 0 Anonymous Users)
0 Members:

 



- Lo-Fi Version Support form
Copyrights and abuse reports form
Time is now: 25th June 2021 - 11:11:33