Welcome Guest ( Log In | Register )

> Hymnr - Far Beyond Insanity (2021), Black Metal
post Apr 22 2021, 17:48:17
Post #1

Правь статус, ####!111
**************
Group: Металариец
Posts: 4,083
Releases: 3739
From: Одесса
On Forums: 13 years 2 weeks
Thanks: 40685 time(s)
Ukraine


(IMG:http://metalarea.org/images/audiocovers/2021_Apr/acov_tid349939_thumb.jpg)

*Artist: Hymnr
*Album: Far Beyond Insanity
*Year: 2021
*Genre: Black Metal
*Country: Russian Federation (IMG:http://metalarea.org/forum/style_images/flags/Russian%20Federation.png)
*Format: mp3@CBR320kbps
*Size: 93MB

Tracklist:
1. Part I 10:42
2. Part II 08:10
3. Part III 13:03
4. Part IV 12:02
******************************
Total playing time: 43:57

Extended info
В ЛОУ

Line - up:

VII - Drums
VI - Guitars, Bass
V - Vocals


Technical info
(IMG:http://metalarea.org/images/spectrogram/2021_Apr/cafc87f9ac041c5159894ff95da81066.png)
Input File: 02. Part II.mp3
Channels : 2
Sample Rate : 48000
Precision : 16-bit
Duration : 00:08:10.49 = 23543568 samples ~ 36786.8 CDDA sectors
File Size : 19.6M
Bit Rate : 320k
Sample Encoding: MPEG audio (layer I, II or III)
Comments :
Title=Part II
Artist=Hymnr
Album=Far Beyond Insanity
Tracknumber=02
Year=2021
Genre=138



Register


Go to the top of the page
  Insert nick Quick quote
+Quote Post
 
Start new topic
Replies (1 - 3)
post Apr 23 2021, 16:33:41
Post #2

Маньяк
**********
Group: Металариец
Posts: 1,475
Releases: 0
From: Canada
On Forums: 8 years 7 months
Thanks: 920 time(s)
Canada


Go to the top of the page
  Insert nick Quick quote
+Quote Post
post May 4 2021, 10:18:14
Post #3

Два Литра
**
Group: Завсегдатай
Posts: 121
Releases: 0
On Forums: 11 years 2 weeks
Thanks: 74 time(s)
Russian Federation


Годнейший релиз. Нет ни у кого в качестве?
Go to the top of the page
  Insert nick Quick quote
+Quote Post
post May 10 2021, 11:01:17
Post #4

brutalcesar
**************
Group: Металариец
Posts: 18,207
Releases: 71
From: Рязань
On Forums: 12 years 5 months
Thanks: 10252 time(s)
Russian Federation


Согласен, неплохо. Атмосфера правильная!
Go to the top of the page
  Insert nick Quick quote
+Quote Post

Reply to this topicStart new topic
2 User(s) are reading this topic (2 Guests and 0 Anonymous Users)
0 Members:

 



- Lo-Fi Version Support form
Copyrights and abuse reports form
Time is now: 22nd June 2021 - 01:36:45