Welcome Guest ( Log In | Register )

> Forum rules / Правила раздела

Here go releases which can't go to New releases forums due lack of information, stolen links or incorrect data and just founded in other sites links with minimum info. Reissue of this releases through Add release form with added/corrected data, info and own links highly welcomed.

Сюда уходят релизы, не пропущенные в основные релизные форумы по причинам отсутствия, недостаточности или неверности/некорректности сопровождающей информации, содержащие ссылки, указывающие на файлы, залитые не автором темы, а так же просто найденные где-то ссылки с минимумом информации. Переоформление тем отсюда через форму Добавления релиза с перезаливкой ссылок крайне приветствуется.

 
Reply to this topicStart new topic
> Hideous Divinity - Lv-426 [ep] (2021), Technical Brutal Death Metal (D6)
post Apr 22 2021, 20:23:24
Post #1

brutalcesar
**************
Group: Металариец
Posts: 18,226
Releases: 71
From: Рязань
On Forums: 12 years 6 months
Thanks: 10280 time(s)
Russian Federation


(IMG:http://metalarea.org/images/audiocovers/2021_Apr/acov_tid349943_thumb.jpg)

*Artist: Hideous Divinity
*Album: Lv-426 [ep]
*Year: 2021
*Genre: Technical Brutal Death Metal
*Country: Italy (IMG:http://metalarea.org/forum/style_images/flags/Italy.png)
*Format: mp3@CBR320kbps
*Size: 38MB

Tracklist:
1. Acheron, Stream of Woe
2. Chestburst
3. Delirium Trigger (Coheed and Cambria cover)
******************************
Total playing time: 16:14

(IMG:http://metalarea.org/images/youtube.png)

Extended info
Release date: 23/04/2021


Technical info
(IMG:http://metalarea.org/images/spectrogram/2021_Apr/7e369b4971c4218e38112a7575fbf9d6.png)
Input File: 02 - Chestburst.mp3
Channels : 2
Sample Rate : 44100
Precision : 16-bit
Duration : 00:04:01.00 = 10628100 samples = 18075 CDDA sectors
File Size : 9.81M
Bit Rate : 326k
Sample Encoding: MPEG audio (layer I, II or III)
Comments :
Title=Chestburst
Artist=Hideous Divinity
Album=LV-426
Tracknumber=2
Year=2021-23-04



Register


Thanks:
Go to the top of the page
  Insert nick Quick quote
+Quote Post

Reply to this topicStart new topic
1 User(s) are reading this topic (1 Guests and 0 Anonymous Users)
0 Members:

 



- Lo-Fi Version Support form
Copyrights and abuse reports form
Time is now: 24th July 2021 - 04:41:30