Welcome Guest ( Log In | Register )

> Ulo - Three Two (2021), Slamming Brutal Death Metal
post Apr 23 2021, 16:59:54
Post #1

Правь статус, ####!111
**************
Group: Металариец
Posts: 27,436
Releases: 19916
From: Г.Харьков
On Forums: 9 years 4 months
Thanks: 401941 time(s)
Unknown


(IMG:https://metalarea.org/images/audiocovers/2021_Apr/acov_tid349978_thumb.jpg)

*Artist: Ulo
*Album: Three Two
*Year: 2021
*Genre: Slamming Brutal Death Metal
*Country: International (IMG:https://metalarea.org/forum/style_images/flags/International.png)
*Format: mp3@CBR320kbps
*Size: 57MB

Tracklist:
1. Seed Of Corpse Dung - Ft. Angel Ochoa 03:27
2. Ambush Mercilessly - Ft. Weerasak Kitthammapirak 03:11
3. Sadistic Predator - Ft. Larry Wang 02:57
4. Swallowed Raw - Ft. Angel Ochoa 02:48
5. Bad odor - Weerasak Kitthammapirak 03:44
6. Rotten Human Excrement - Ft. Larry Wang 02:34
7. Corpse Eater 02:45
8. Unpleasant Smell - Ft. Larry Wang 02:56
******************************
Total playing time: 24:22




Extended info
Indonesia / USA / Taiwan / Thailand
Aditya Prakoso Everything
See also: Brain Damage, Fetal Bleeding, Gerogot, Raw, ex-Dry


Technical info
(IMG:https://metalarea.org/images/spectrogram/2021_Apr/b31b89cf4d0c2225286a2b13e2a0dcc6.png)
Input File: 05 Bad odor - Weerasak Kitthammapirak.mp3
Channels : 2
Sample Rate : 44100
Precision : 16-bit
Duration : 00:03:44.95 = 9920383 samples = 16871.4 CDDA sectors
File Size : 9.15M
Bit Rate : 325k
Sample Encoding: MPEG audio (layer I, II or III)
Comments :
Title=Bad odor - Weerasak Kitthammapirak
Artist=ULO
Album=Three Two
Tracknumber=5
Year=2021



Register


Go to the top of the page
  Insert nick Quick quote
+Quote Post
 
Start new topic
Replies (1 - 3)
post May 2 2021, 10:44:40
Post #2

Group: Подсевший
Posts: 30
Releases: 0
From: москва
On Forums: 13 years 7 months
Thanks: 2 time(s)
Russian Federation


отличный слэмчик
Go to the top of the page
  Insert nick Quick quote
+Quote Post
post May 17 2021, 12:51:40
Post #3

добрый мизантроп
**************
Group: Металариец
Posts: 2,394
Releases: 1
From: Менск
On Forums: 10 years 10 months
Thanks: 1079 time(s)
Madagascar


Great sound, so clean, sonorous and sharp.
Last 3 songs is a bit boring, but I'll save it anyway, because its very quality and not really slammish BruDM, which is rear thing.
Go to the top of the page
  Insert nick Quick quote
+Quote Post
post May 17 2021, 15:52:10
Post #4

кручу наждак
**************
Group: Металариец
Posts: 5,134
Releases: 104
From: Самара
On Forums: 11 years 4 months
Thanks: 4122 time(s)
Russian Federation


Интернациональный ван-мен-бенд. Теперь я видел все.


Thanks:
Go to the top of the page
  Insert nick Quick quote
+Quote Post

Reply to this topicStart new topic
2 User(s) are reading this topic (2 Guests and 0 Anonymous Users)
0 Members:

 



- Lo-Fi Version Support form
Copyrights and abuse reports form
Time is now: 25th September 2021 - 21:31:18