Welcome Guest ( Log In | Register )

> Sutura - Dawn Of Cursed Souls (2021), Old School Death Metal
post Apr 24 2021, 15:41:24
Post #1

Правь статус, ####!111
**************
Group: Металариец
Posts: 27,706
Releases: 20146
From: Г.Харьков
On Forums: 9 years 5 months
Thanks: 407763 time(s)
Unknown


(IMG:https://metalarea.org/images/audiocovers/2021_Apr/acov_tid350017_thumb.jpg)

*Artist: Sutura
*Album: Dawn Of Cursed Souls
*Year: 2021
*Genre: Old School Death Metal
*Country: Brazil (IMG:https://metalarea.org/forum/style_images/flags/Brazil.png)
*Format: mp3@CBR320kbps
*Size: 89MB

Tracklist:
1. Dawn of Cursed Souls 05:03
2. Sacramental Bleed 05:24
3. Under the Black Mark 03:47
4. Death's Fathom 01:29
5. Haunted by Old Ghost 04:26
6. Where Shadows of Death May Lie 04:11
7. Chaos and Demise 03:56
8. Suffering Cage 05:01
9. Worms in Disguise 05:02
******************************
Total playing time: 38:19




Extended info
William "Delta X" Toledo Drums
See also: Desvanecer, ex-Krattera
Luciano Galvão Guitars, Vocals
Erik Amorim Bass (2018-present)
Nathan Azevedo Guitars (2018-present)


Technical info
(IMG:https://metalarea.org/images/spectrogram/2021_Apr/36295b62022ab200b51296c5b7872196.png)
Input File: SUTURA - Dawn of Cursed Souls - 08 Suffering Cage.mp3
Channels : 2
Sample Rate : 44100
Precision : 16-bit
Duration : 00:05:00.69 = 13260253 samples = 22551.5 CDDA sectors
File Size : 12.2M
Bit Rate : 325k
Sample Encoding: MPEG audio (layer I, II or III)
Comments :
Title=Suffering Cage
Artist=SUTURA
Album=Dawn of Cursed Souls
Tracknumber=8
Year=2021



Register


Go to the top of the page
  Insert nick Quick quote
+Quote Post
 
Start new topic
Replies (1 - 4)
post Apr 24 2021, 22:04:57
Post #2

Правь статус, ####!111
**************
Group: Металариец
Posts: 27,706
Releases: 20146
From: Г.Харьков
On Forums: 9 years 5 months
Thanks: 407763 time(s)
Unknown


FLAC (Tracks) 450 mb
Register


Go to the top of the page
  Insert nick Quick quote
+Quote Post
post Apr 25 2021, 09:23:05
Post #3

Пять Литров
*****
Group: Металариец
Posts: 451
Releases: 0
On Forums: 3 years 10 months
Thanks: 81 time(s)
Unknown


Thanks for this!


Thanks:
(1) Occultas,
Go to the top of the page
  Insert nick Quick quote
+Quote Post
post Apr 28 2021, 18:15:20
Post #4

Сектант технодро4чер
**************
Group: Металариец
Posts: 5,587
Releases: 143
From: Тимчасово окупована територія
On Forums: 13 years 2 months
Thanks: 5977 time(s)
Ukraine


Интересно.
Go to the top of the page
  Insert nick Quick quote
+Quote Post
post May 2 2021, 18:22:18
Post #5

Шесть Литров
******
Group: Металариец
Posts: 501
Releases: 0
From: Град Московский
On Forums: 13 years 9 months
Thanks: 136 time(s)
Russian Federation


СУПЕР АЛЬБОМ!!!!


Thanks:
Go to the top of the page
  Insert nick Quick quote
+Quote Post

Reply to this topicStart new topic
2 User(s) are reading this topic (2 Guests and 0 Anonymous Users)
0 Members:

 



- Lo-Fi Version Support form
Copyrights and abuse reports form
Time is now: 21st October 2021 - 22:39:29