Welcome Guest ( Log In | Register )

> Amafufunyana - Demonic Possession I [demo] (2021), Raw Black Metal
post Apr 24 2021, 18:35:00
Post #1

Правь статус, ####!616
**************
Group: Металариец
Posts: 6,597
Releases: 5054
From: 55°35’N 38°08’E
On Forums: 13 years 2 weeks
Thanks: 93179 time(s)
Unknown


(IMG:https://metalarea.org/images/audiocovers/2021_Apr/acov_tid350022_thumb.jpg)

*Artist: Amafufunyana
*Album: Demonic Possession I [demo]
*Year: 2021
*Genre: Raw Black Metal
*Country: Unknown (IMG:https://metalarea.org/forum/style_images/flags/Unknown.png)
*Format: mp3@CBR320kbps
*Size: 54MB

Tracklist:
1.I 08:16
2.II 08:18
3.III 06:57
******************************
Total playing time: 23:31



Technical info
(IMG:https://metalarea.org/images/spectrogram/2021_Apr/9f6f3b65a467178da04e41a40c0f4dda.png)
Input File: 01 I.mp3
Channels : 2
Sample Rate : 44100
Precision : 16-bit
Duration : 00:08:16.23 = 21883567 samples = 37217 CDDA sectors
File Size : 20.0M
Bit Rate : 322k
Sample Encoding: MPEG audio (layer I, II or III)
Comments :
Title=I
Artist=Amafufunyana
Album=Demonic Possession I
Tracknumber=1
Year=2021
Genre=Black Metal



Register


Go to the top of the page
  Insert nick Quick quote
+Quote Post
 
Start new topic
Replies (1 - 4)
post Apr 25 2021, 15:26:38
Post #2

De Mysteriis Dom Sathanas
**************
Group: Металариец
Posts: 4,229
Releases: 63
From: Doom
On Forums: 13 years 1 week
Thanks: 3629 time(s)
Russian Federation


Что облога, что название (IMG:style_emoticons/default/1488.gif)


Thanks:
Go to the top of the page
  Insert nick Quick quote
+Quote Post
post Apr 25 2021, 16:08:50
Post #3

градусы контрастов
**************
Group: Металариец
Posts: 5,120
Releases: 0
On Forums: 5 years 5 months
Thanks: 3312 time(s)
Unknown


йа дурак, но амафуфуняня - это сильно.
Go to the top of the page
  Insert nick Quick quote
+Quote Post
post Apr 25 2021, 16:59:36
Post #4

Пять Литров
*****
Group: Металариец
Posts: 462
Releases: 0
From: Мурманск
On Forums: 11 years 3 months
Thanks: 613 time(s)
Russian Federation


Описание с bandcamp:
A M A F U F U N Y A N A
People who claim to be suffering from amafufunyana state that their symptoms include hearing "voices from their stomachs", speaking in another language or in a disturbing tone, and general agitation and possible violence. There is also the possibility of suicide being attempted.

One of the cultural beliefs for the cause is bewitchment from drinking a magic potion brewed from ants that have been feeding upon a buried dead body. General possession by malignant spirits is also believed. Among the Zulu specifically, there is also the belief that a "horde of spirits" from multiple ethnic groups come together to take over a person's body.

The common cultural treatment for the claimed ailment is for one of the traditional healers, often ukuthwasa themselves, to perform a ritual of exorcism.

In Other Mean Amafufunyana is an unspecified "culture-bound" syndrome named by the traditional healers of the Xhosa people that relates to claims of DEMONIC POSSESSION due to members of the Xhosa people exhibiting aberrant behavior and psychological concerns.
Go to the top of the page
  Insert nick Quick quote
+Quote Post
post Apr 25 2021, 20:58:08
Post #5

Full-of-Hate
**************
Group: Металариец
Posts: 4,440
Releases: 0
From: Moscow
On Forums: 12 years 3 weeks
Thanks: 4635 time(s)
Russian Federation


Теги в бандкампе писали дольше композиций. Фуфня, как грицца.
Go to the top of the page
  Insert nick Quick quote
+Quote Post

Reply to this topicStart new topic
2 User(s) are reading this topic (2 Guests and 0 Anonymous Users)
0 Members:

 



- Lo-Fi Version Support form
Copyrights and abuse reports form
Time is now: 24th July 2021 - 08:45:53