Welcome Guest ( Log In | Register )

> Osiris - Meanders A Soul​.​.​. (2021), Symphonic/Melodic Black Metal
post Apr 26 2021, 12:45:14
Post #1

Правь статус, ####!111
**************
Group: Металариец
Posts: 26,644
Releases: 19190
From: Г.Харьков
On Forums: 9 years 2 months
Thanks: 384008 time(s)
Unknown


(IMG:https://metalarea.org/images/audiocovers/2021_Apr/acov_tid350080_thumb.jpg)

*Artist: Osiris
*Album: Meanders A Soul​.​.​.
*Year: 2021
*Genre: Symphonic/Melodic Black Metal
*Country: Egypt (IMG:https://metalarea.org/forum/style_images/flags/Egypt.png)
*Format: mp3@CBR320kbps
*Size: 112MB

Tracklist:
1. Seasons of Flooding Chaos (Akhet nw Isfet) 01:58
2. Of Hate, Passion and Eternity 05:47
3. Forgotten Stones of Time 06:20
4. Faceless Men 05:55
5. Self Destructive Nature 07:10
6. Our Essence 04:33
7. Tears of Isis 06:48
8. Night Sky 05:35
9. Endless Sands 04:20
******************************
Total playing time: 48:26





Extended info
Isfet Guitars (1996-1998), Guitars, Bass, Drums, Percussion, Orchestrations, Vocals (backing) (2014-present)
Scott Vocals (2017-present)
See also: Al-Azif





Technical info
(IMG:https://metalarea.org/images/spectrogram/2021_Apr/187737f4d3eced7fdcc6585e34446ba6.png)
Input File: 07 - Tears of Isis.mp3
Channels : 2
Sample Rate : 44100
Precision : 16-bit
Duration : 00:06:48.17 = 18000385 samples = 30612.9 CDDA sectors
File Size : 16.3M
Bit Rate : 320k
Sample Encoding: MPEG audio (layer I, II or III)
Comments :
Title=Tears of Isis
Artist=Osiris
Album=Meanders a Soul...
Tracknumber=7
Year=2021
Genre=Black Metal



Register


Go to the top of the page
  Insert nick Quick quote
+Quote Post
 
Start new topic
Replies (1 - 7)
post Apr 26 2021, 14:00:27
Post #2

Два Литра
**
Group: Завсегдатай
Posts: 117
Releases: 0
From: Камбоджа
On Forums: 12 years 1 month
Thanks: 51 time(s)
Russian Federation


приятная музыка


Thanks:
Go to the top of the page
  Insert nick Quick quote
+Quote Post
post Apr 27 2021, 16:58:38
Post #3

Маньяк
**********
Group: Металариец
Posts: 1,427
Releases: 3
From: Новороссия
On Forums: 15 years 5 months
Thanks: 782 time(s)
Russian Federation


Какого чёрта арабы маскируются под египтян?


Thanks:
(1) Ildjarn,
Go to the top of the page
  Insert nick Quick quote
+Quote Post
post Apr 27 2021, 17:07:14
Post #4

Два Литра
**
Group: Завсегдатай
Posts: 167
Releases: 1
From: Brasil - Sao Paulo
On Forums: 1 year 3 months
Thanks: 68 time(s)
Brazil


Looks pretty interesting, lets listen. Thanks for sharing.
Go to the top of the page
  Insert nick Quick quote
+Quote Post
post Apr 27 2021, 17:29:54
Post #5

Senmuthmusic
****
Group: Металариец
Posts: 302
Releases: 29
On Forums: 13 years 2 months
Thanks: 954 time(s)
Russian Federation


ЦИТАТА(Glioma @ Apr 27 2021, 20:58:38) *
Какого чёрта арабы маскируются под египтян?


Египет — вапще то Арабская Республика))
Go to the top of the page
  Insert nick Quick quote
+Quote Post
post Apr 27 2021, 18:31:17
Post #6

brutalcesar
**************
Group: Металариец
Posts: 18,226
Releases: 71
From: Рязань
On Forums: 12 years 6 months
Thanks: 10280 time(s)
Russian Federation


Хорошо, но плотность звука + отсутствие чёткости - это минус в такой музыке. Слишком всё в кучу
Go to the top of the page
  Insert nick Quick quote
+Quote Post
post Apr 27 2021, 23:29:00
Post #7

Это просто место… где все подошло к концу.
**************
Group: Металариец
Posts: 6,332
Releases: 0
From: Страны Мамонтов
On Forums: 14 years 5 months
Thanks: 2481 time(s)
Antarctica


ЦИТАТА(Glioma @ Apr 27 2021, 18:58:38) *
Какого чёрта арабы маскируются под египтян?

Да там старая история
Go to the top of the page
  Insert nick Quick quote
+Quote Post
post May 14 2021, 00:10:55
Post #8

Group: Подсевший
Posts: 36
Releases: 0
On Forums: 12 years 1 month
Thanks: 1 time(s)
Russian Federation


Amazing Band, thanks, FLAC please¡¡¡¡
Go to the top of the page
  Insert nick Quick quote
+Quote Post

Reply to this topicStart new topic
1 User(s) are reading this topic (1 Guests and 0 Anonymous Users)
0 Members:

 



- Lo-Fi Version Support form
Copyrights and abuse reports form
Time is now: 24th July 2021 - 10:06:07