Welcome Guest ( Log In | Register )

> Chronic Torment - Demons Of Chaos (2009), Death Metal
post Apr 26 2021, 14:19:27
Post #1

hearer & reader
**************
Group: Металариец
Posts: 9,813
Releases: 172
From: Moscow
On Forums: 13 years 10 months
Thanks: 11064 time(s)
Russian Federation


(IMG:http://metalarea.org/images/audiocovers/2021_Apr/acov_tid350086_thumb.jpg)

*Artist: Chronic Torment
*Album: Demons Of Chaos
*Year: 2009
*Genre: Death Metal
*Country: Sweden (IMG:http://metalarea.org/forum/style_images/flags/Sweden.png)
*Format: mp3@CBR320kbps
*Size: 69MB

Tracklist:
1. Dawn of Time 03:36
2. Demons of Chaos 03:33
3. Medieval Torture 04:10
4. Plague I Feed 03:53
5. Embryonic Decay 04:54
6. Visions of Gehenna 03:37
7. Vultures Blood 02:38
8. Death to Us All 03:11
******************************
Total playing time: 29:32




Extended info
Работа средней руки. Но пусть будет.


Technical info
(IMG:http://metalarea.org/images/spectrogram/2021_Apr/3dd5d2332ba3579db088f9544e26ddf2.png)
Input File: 02 - Demons of Chaos.mp3
Channels : 2
Sample Rate : 44100
Precision : 16-bit
Duration : 00:00:59.93 = 2642693 samples = 4494.38 CDDA sectors
File Size : 2.40M
Bit Rate : 320k
Sample Encoding: MPEG audio (layer I, II or III)
Comments :
Title=Demons of Chaos
Artist=Chronic Torment [Sweden]
Album=Demons of Chaos
Tracknumber=02
Year=2009
Genre=Death Metal



Register


Go to the top of the page
  Insert nick Quick quote
+Quote Post
 
Start new topic
Replies (1 - 1)
post Apr 27 2021, 23:19:22
Post #2

Crush The Enemies
**************
Group: Металариец
Posts: 4,334
Releases: 0
From: Moscow
On Forums: 11 years 10 months
Thanks: 2788 time(s)
Russian Federation


ЦИТАТА(AHBAnep @ 26th April 2021 - 17:19:27) *
Работа средней руки. Но пусть будет.

ШВЕДЫ лишними никогда не будут (IMG:style_emoticons/default/9.gif)

P.S Кстати,весьма неплохо - ФРОНТМЭН хорош! (IMG:style_emoticons/default/dwarf-1.gif) (IMG:style_emoticons/default/dwarf-1.gif) (IMG:style_emoticons/default/dwarf-1.gif)


Thanks:
(1) metamfer,
Go to the top of the page
  Insert nick Quick quote
+Quote Post

Reply to this topicStart new topic
1 User(s) are reading this topic (1 Guests and 0 Anonymous Users)
0 Members:

 



- Lo-Fi Version Support form
Copyrights and abuse reports form
Time is now: 24th July 2021 - 12:27:22