Welcome Guest ( Log In | Register )

> Nöldr - Misanthropic Forest [ep] (2021), Black Metal
post Apr 26 2021, 18:42:21
Post #1

Правь статус, ####!616
**************
Group: Металариец
Posts: 6,619
Releases: 5087
From: 55°35’N 38°08’E
On Forums: 13 years 3 weeks
Thanks: 93631 time(s)
Unknown


(IMG:https://metalarea.org/images/audiocovers/2021_Apr/acov_tid350100_thumb.jpg)

*Artist: Nöldr
*Album: Misanthropic Forest [ep]
*Year: 2021
*Genre: Black Metal
*Country: Brazil (IMG:https://metalarea.org/forum/style_images/flags/Brazil.png)
*Format: mp3@CBR320kbps
*Size: 85MB

Tracklist:
1.Misanthropic Forest 05:29
2.Dungeon Ov Fear 06:09
3.Pure Slaughter 07:28
4.River Ov Bloody Moon 06:23
5.Pale Night 06:46
6.The Return To Ashes 04:46
******************************
Total playing time: 37:01



Technical info
(IMG:https://metalarea.org/images/spectrogram/2021_Apr/e20328541bd7e83bb3b5b115492880cd.png)
Input File: 03 Pure Slaughter.mp3
Channels : 2
Sample Rate : 44100
Precision : 16-bit
Duration : 00:07:28.24 = 19767252 samples = 33617.8 CDDA sectors
File Size : 18.0M
Bit Rate : 322k
Sample Encoding: MPEG audio (layer I, II or III)
Comments :
Title=Pure Slaughter
Artist=Nöldr
Album=Misanthropic Forest
Tracknumber=3
Year=2021
Genre=Black Metal



Register


Go to the top of the page
  Insert nick Quick quote
+Quote Post
 
Start new topic
Replies (1 - 3)
post Apr 27 2021, 12:27:53
Post #2

Два Литра
**
Group: Завсегдатай
Posts: 168
Releases: 1
From: Brasil - Sao Paulo
On Forums: 1 year 3 months
Thanks: 68 time(s)
Brazil


Thanks dude!
Go to the top of the page
  Insert nick Quick quote
+Quote Post
post Apr 27 2021, 16:33:57
Post #3

0%Tolerance
**********
Group: Металариец
Posts: 1,161
Releases: 0
On Forums: 8 years 10 months
Thanks: 207 time(s)
Unknown


Годная мизантроп(иче)ская блэчина.
Go to the top of the page
  Insert nick Quick quote
+Quote Post
post Apr 27 2021, 18:10:31
Post #4

Мегаманьяк
***********
Group: Металариец
Posts: 1,500
Releases: 0
From: Canada
On Forums: 8 years 8 months
Thanks: 936 time(s)
Canada


IMHO top fast MBM EP for 2021! (IMG:style_emoticons/default/true_black.gif) (IMG:style_emoticons/default/true_black.gif) (IMG:style_emoticons/default/true_black.gif)
Go to the top of the page
  Insert nick Quick quote
+Quote Post

Reply to this topicStart new topic
1 User(s) are reading this topic (1 Guests and 0 Anonymous Users)
0 Members:

 



- Lo-Fi Version Support form
Copyrights and abuse reports form
Time is now: 29th July 2021 - 12:44:18