Welcome Guest ( Log In | Register )

 
Reply to this topicStart new topic
> Trhä - Lhum Jolhduc [ep] (2021), Atmospheric Black Metal
post Apr 27 2021, 21:28:33
Post #1

Правь статус, ####!616
**************
Group: Металариец
Posts: 6,597
Releases: 5054
From: 55°35’N 38°08’E
On Forums: 13 years 2 weeks
Thanks: 93180 time(s)
Unknown


(IMG:https://metalarea.org/images/audiocovers/2021_Apr/acov_tid350136_thumb.jpg)

*Artist: Trhä
*Album: Lhum Jolhduc [ep]
*Year: 2021
*Genre: Atmospheric Black Metal
*Country: Unknown (IMG:https://metalarea.org/forum/style_images/flags/Unknown.png)
*Format: mp3@CBR320kbps
*Size: 82MB

Tracklist:
1.Dôlh 14:18
2.Ëpfêrhäth 07:06
3.Tu ëëjatonëg lhëlh 09:16
4.Erhlä (2014 Demo) 04:33
******************************
Total playing time: 35:13



Technical info
(IMG:https://metalarea.org/images/spectrogram/2021_Apr/b49c472ea3469f1a9ee5cd509365bc72.png)
Input File: 02 ëpfêrhäth.mp3
Channels : 2
Sample Rate : 44100
Precision : 16-bit
Duration : 00:07:06.11 = 18791451 samples = 31958.2 CDDA sectors
File Size : 17.2M
Bit Rate : 324k
Sample Encoding: MPEG audio (layer I, II or III)
Comments :
Title=ëpfêrhäth
Artist=Trhä
Album=lhum jolhduc
Tracknumber=2
Year=2021
Genre=Black Metal



Register


Go to the top of the page
  Insert nick Quick quote
+Quote Post

Reply to this topicStart new topic
1 User(s) are reading this topic (1 Guests and 0 Anonymous Users)
0 Members:

 



- Lo-Fi Version Support form
Copyrights and abuse reports form
Time is now: 24th July 2021 - 11:40:31