Welcome Guest ( Log In | Register )

 
Reply to this topicStart new topic
> Stone Horns - Rise Of Apophis (2021), Groove/Thrash Metal
post Apr 27 2021, 21:54:06
Post #1

Время Мары
**************
Group: Металариец
Posts: 3,251
Releases: 474
From: Харьков
On Forums: 12 years 3 months
Thanks: 9772 time(s)
Ukraine


(IMG:http://metalarea.org/images/audiocovers/2021_Apr/acov_tid350137_thumb.jpg)

*Artist: Stone Horns
*Album: Rise Of Apophis
*Year: 2021
*Genre: Groove/Thrash Metal
*Country: France (IMG:http://metalarea.org/forum/style_images/flags/France.png)
*Format: mp3@CBR320kbps
*Size: 89MB

Tracklist:
01. The Unborn
02. Molten River
03. From Amourphous To Hydra
04. Shores Of Kismeth
05. Night And Day
06. Surging Out The Nile
07. Invocation
08. Tide Of Blood & Bones
09. Rise Of Apophis
******************************
Total playing time: 37:55

Technical info
(IMG:http://metalarea.org/images/spectrogram/2021_Apr/37feb1e7fd5717f257ba6f0b42f50168.png)
Input File: 02. Molten River.mp3
Channels : 2
Sample Rate : 44100
Precision : 16-bit
Duration : 00:04:16.25 = 11300713 samples = 19218.9 CDDA sectors
File Size : 10.5M
Bit Rate : 328k
Sample Encoding: MPEG audio (layer I, II or III)
Comments :
Title=Molten River
Artist=Stone Horns
Album=Rise of Apophis
Tracknumber=02/09
Year=2021



Register


Go to the top of the page
  Insert nick Quick quote
+Quote Post

Reply to this topicStart new topic
1 User(s) are reading this topic (1 Guests and 0 Anonymous Users)
0 Members:

 



- Lo-Fi Version Support form
Copyrights and abuse reports form
Time is now: 29th September 2021 - 03:05:00