Welcome Guest ( Log In | Register )

> Releases Upload / Добавление релизов

Добавить релиз тут / Click here to add release
Рекомендованные обменники / Recommended file shares

> Hostile - Fièvre Sylvestre [ep] (2021), Black Metal
post Apr 28 2021, 08:19:58
Post #1

Правь статус, ####!616
**************
Group: Металариец
Posts: 6,193
Releases: 4695
From: 55°35’N 38°08’E
On Forums: 12 years 10 months
Thanks: 86832 time(s)
Unknown


(IMG:https://metalarea.org/images/audiocovers/2021_Apr/acov_tid350144_thumb.jpg)

*Artist: Hostile
*Album: Fièvre Sylvestre [ep]
*Year: 2021
*Genre: Black Metal
*Country: France (IMG:https://metalarea.org/forum/style_images/flags/France.png)
*Format: mp3@CBR320kbps
*Size: 91MB

Tracklist:
1.The Banned Mantra 09:41
2.Puis Vint la Lune 07:41
3.Car Mourant est le Souffle des Djinns 03:06
4.Fièvre Sylvestre 07:46
5.Aux Frontières de l'Aube 10:51
******************************
Total playing time: 39:05




Technical info
(IMG:https://metalarea.org/images/spectrogram/2021_Apr/001d8fae256a2a4a8b1f6b2ad6b8ae1c.png)
Input File: 01 The Banned Mantra.mp3
Channels : 2
Sample Rate : 44100
Precision : 16-bit
Duration : 00:09:41.39 = 25639299 samples = 43604.2 CDDA sectors
File Size : 23.4M
Bit Rate : 322k
Sample Encoding: MPEG audio (layer I, II or III)
Comments :
Title=The Banned Mantra
Artist=Hostile
Album=Fièvre Sylvestre EP
Tracknumber=1
Year=2021
Genre=Black Metal



Register


Go to the top of the page
  Insert nick Quick quote
+Quote Post
 
Start new topic
Replies (1 - 1)
post May 4 2021, 09:38:06
Post #2

I hate you all
**************
Group: Металариец
Posts: 2,568
Releases: 82
From: Ukraine
On Forums: 14 years 5 days
Thanks: 6547 time(s)
Ukraine


Go to the top of the page
  Insert nick Quick quote
+Quote Post

Reply to this topicStart new topic
2 User(s) are reading this topic (2 Guests and 0 Anonymous Users)
0 Members:

 



- Lo-Fi Version Support form
Copyrights and abuse reports form
Time is now: 13th May 2021 - 10:54:37