Welcome Guest ( Log In | Register )

> Правила / Rules

Тут только для чтения лежат низкобитрейтные (<192kbps) релизы, для которых есть аналоги в высокобитрейтных форумах.

Here goes (and stand in read only mode) low bitrate releases (<192kbps) which were already replaced by high bitrate releases in corresponding forums.

> Ifrinn - Caledonian Black Magick [ep] (2021), Black Metal
post Apr 28 2021, 18:43:29
Post #1

Malum dominus omnium
****
Group: Металариец
Posts: 331
Releases: 242
On Forums: 1 year 2 months
Thanks: 4758 time(s)
Vatican City


(IMG:https://metalarea.org/images/audiocovers/2021_Apr/acov_tid350173_thumb.jpg)

*Artist: Ifrinn
*Album: Caledonian Black Magick [ep]
*Year: 2021
*Genre: Black Metal
*Country: United Kingdom (IMG:https://metalarea.org/forum/style_images/flags/United%20Kingdom.png)
*Format: mp3@CBR320kbps
*Size: 57MB

Tracklist:
1. Caledonian Black Magick 08:39
2. Silent Seas of Sorcery 07:56
3. Stellar Zephyrs 07:55
******************************
Total playing time: 24:30


(IMG:https://metalarea.org/images/youtube.png)
Metal Archives

Technical info
(IMG:https://metalarea.org/images/spectrogram/2021_Apr/db6b53f7ec28ad76ad4b9c39b287ca8b.png)
Input File: Ifrinn - Stellar Zephyrs.mp3
Channels : 2
Sample Rate : 48000
Precision : 16-bit
Duration : 00:07:55.16 = 22807680 samples ~ 35637 CDDA sectors
File Size : 19.0M
Bit Rate : 320k
Sample Encoding: MPEG audio (layer I, II or III)
Comments :
Title=Stellar Zephyrs
Artist=Ifrinn
Album=Caledonian Black Magick
Tracknumber=3
Year=2021
Genre=Black Metal



Register


Go to the top of the page
  Insert nick Quick quote
+Quote Post
 
Start new topic
Replies (1 - 1)
post Apr 29 2021, 12:23:06
Post #2

Четыре Литра
****
Group: Металариец
Posts: 385
Releases: 10
On Forums: 14 years 2 months
Thanks: 558 time(s)
French Southern Territories


proper bandcamp anyone?
Go to the top of the page
  Insert nick Quick quote
+Quote Post

Причина закрытия (DarkHorde 06-05-2021): Ifrinn - Caledonian Black Magick Ep [ep] (2021)
Closed TopicStart new topic
1 User(s) are reading this topic (1 Guests and 0 Anonymous Users)
0 Members:

 



- Lo-Fi Version Support form
Copyrights and abuse reports form
Time is now: 13th May 2021 - 04:18:18