Welcome Guest ( Log In | Register )

> Bunker 66 - Beyond The Help Of Prayers (2021), Black/Thrash Metal (D7)
post Apr 29 2021, 11:10:29
Post #1

Правь статус, ####!111
**************
Group: Металариец
Posts: 27,358
Releases: 19846
From: Г.Харьков
On Forums: 9 years 4 months
Thanks: 399540 time(s)
Unknown


(IMG:https://metalarea.org/images/audiocovers/2021_Apr/acov_tid350188_thumb.jpg)

*Artist: Bunker 66
*Album: Beyond The Help Of Prayers
*Year: 2021
*Genre: Black/Thrash Metal
*Country: Italy (IMG:https://metalarea.org/forum/style_images/flags/Italy.png)
*Format: mp3@CBR320kbps
*Size: 74MB

Tracklist:
1. To the Gates of Death - Lair of the Profaner 05:05
2. The Blackest of Omens 03:25
3. The Rite of the Goat 02:58
4. Summon the Evil Lords 04:12
5. At Our Master's Behest 03:59
6. Malicious... Seditious... 03:31
7. Regret Every Breath 01:05
8. Die on Monday 03:02
9. Beyond the Help of Prayers 04:39
******************************
Total playing time: 31:56





Extended info
FLAC-Rip
Damien Thorne Bass, Vocals
Dee Dee Altar Drums
J.J. Priestkiller Guitars



Technical info
(IMG:https://metalarea.org/images/spectrogram/2021_Apr/8e48572d80ae0b96eb79f2984e744c20.png)
Input File: 09 - Beyond the Help of Prayers.mp3
Channels : 2
Sample Rate : 44100
Precision : 16-bit
Duration : 00:04:39.00 = 12303900 samples = 20925 CDDA sectors
File Size : 11.3M
Bit Rate : 324k
Sample Encoding: MPEG audio (layer I, II or III)
Comments :
Title=Beyond the Help of Prayers
Artist=Bunker 66
Album=Beyond the Help of Prayers
Tracknumber=9
Year=2021-04-30
Genre=Metal
Discnumber=1



Register


Go to the top of the page
  Insert nick Quick quote
+Quote Post
 
Start new topic
Replies (1 - 7)
post May 1 2021, 05:17:39
Post #2

Маньяк
**********
Group: Металариец
Posts: 1,393
Releases: 478
On Forums: 10 years 10 months
Thanks: 10309 time(s)
Italy


Excellent record, reminds me of early Running Wild, Helloween and Venom! (IMG:style_emoticons/default/9.gif)
Go to the top of the page
  Insert nick Quick quote
+Quote Post
post May 1 2021, 08:04:57
Post #3

Forever Underground
**************
Group: Металариец
Posts: 8,794
Releases: 0
On Forums: 6 years 5 months
Thanks: 12202 time(s)
Unknown


QUOTE(kefka @ May 1 2021, 06:17:39) *
Excellent record

(IMG:style_emoticons/default/27.gif) (IMG:style_emoticons/default/t2017.gif)


Thanks:
(1) kefka,
Go to the top of the page
  Insert nick Quick quote
+Quote Post
post May 1 2021, 10:22:19
Post #4

Девять Литров
*********
Group: Металариец
Posts: 931
Releases: 0
On Forums: 8 years 1 month
Thanks: 714 time(s)
Australia


QUOTE(kefka @ May 1 2021, 06:17:39) *
Excellent record, reminds me of early Running Wild, Helloween and Venom! (IMG:style_emoticons/default/9.gif)

(IMG:style_emoticons/default/hmm.gif)


Thanks:
Go to the top of the page
  Insert nick Quick quote
+Quote Post
post May 2 2021, 12:36:15
Post #5

0%Tolerance
**********
Group: Металариец
Posts: 1,293
Releases: 0
On Forums: 9 years 2 days
Thanks: 228 time(s)
Unknown


ЦИТАТА(kefka @ May 1 2021, 05:17:39) *
Excellent record, reminds me of early Running Wild, Helloween and Venom! (IMG:style_emoticons/default/9.gif)


Где тут Раннинг Вайлд и Вином, хер его знает, но какой-то блэк митал Хэловин присутствует, да.
Стафф: на раз послушать и удалить.
Go to the top of the page
  Insert nick Quick quote
+Quote Post
post May 8 2021, 08:00:01
Post #6

melofags sniper
**************
Group: Металариец
Posts: 6,337
Releases: 0
On Forums: 13 years 6 months
Thanks: 7109 time(s)
Unknown


Let the game of the incongruous comparisons begin!


Thanks:
(1) biroutios,
Go to the top of the page
  Insert nick Quick quote
+Quote Post
post May 11 2021, 10:37:05
Post #7

Два Литра
**
Group: Завсегдатай
Posts: 101
Releases: 1
On Forums: 9 years 9 months
Thanks: 66 time(s)
Latvia


Change the vocal and you get Speed Metal a la Exciter, Running Wild, Helloween and Venom ...
Go to the top of the page
  Insert nick Quick quote
+Quote Post
post May 11 2021, 13:36:08
Post #8

Добрейшей души Мегаманьяк
***********
Group: Металариец
Posts: 1,905
Releases: 0
From: Bashkortostan, Өфө
On Forums: 13 years 7 months
Thanks: 933 time(s)
Russian Federation


Да не, нормально. Классный трэшблэковый спидяшник. Переслушаю-ка их дискографию.


Thanks:
(1) DarkHorde,
Go to the top of the page
  Insert nick Quick quote
+Quote Post

Reply to this topicStart new topic
2 User(s) are reading this topic (2 Guests and 0 Anonymous Users)
0 Members:

 



- Lo-Fi Version Support form
Copyrights and abuse reports form
Time is now: 18th September 2021 - 14:41:47