Welcome Guest ( Log In | Register )

> Becerus - Homo Homini Brutus (2021), Death Metal
post Apr 29 2021, 17:22:23
Post #1

Правь статус, ####!111
**************
Group: Металариец
Posts: 27,444
Releases: 19922
From: Г.Харьков
On Forums: 9 years 4 months
Thanks: 402230 time(s)
Unknown


(IMG:https://metalarea.org/images/audiocovers/2021_Apr/acov_tid350227_thumb.jpg)

*Artist: Becerus
*Album: Homo Homini Brutus
*Year: 2021
*Genre: Death Metal
*Country: Italy (IMG:https://metalarea.org/forum/style_images/flags/Italy.png)
*Format: mp3@CBR320kbps
*Size: 60MB

Tracklist:
01. Foggy Dimension (Intro)
02. Primeval Ignorantia
03. Grotesque Parsifal Sucurandus
04. Circular Deficiency
05. Balordicus
06. Latent Primordium
07. Hymn to Ungainly Corpulence
08. Incapacity
09. Marginal Presence
10. Bifolcus
******************************
Total playing time: 24:42




Extended info
Mario Musumeci - Vocals
Giorgio Trombino - Guitars and Bass
Paul Bicipitus - Drums


Technical info
(IMG:https://metalarea.org/images/spectrogram/2021_Apr/6da9decb77ee08cf3bcfa090d3ead95c.png)
Input File: 07. Hymn to Ungainly Corpulence.mp3
Channels : 2
Sample Rate : 44100
Precision : 16-bit
Duration : 00:03:09.06 = 8337590 samples = 14179.6 CDDA sectors
File Size : 7.80M
Bit Rate : 330k
Sample Encoding: MPEG audio (layer I, II or III)
Comments :
Title=Hymn to Ungainly Corpulence
Artist=Becerus
Album=Homo Homini Brutus
Tracknumber=7
Year=2021
Discnumber=1/1



Register


Go to the top of the page
  Insert nick Quick quote
+Quote Post
 
Start new topic
Replies (1 - 3)
post Apr 30 2021, 08:39:01
Post #2

Маньяк
**********
Group: Металариец
Posts: 1,159
Releases: 1
From: APATIN, SERBIA, АПАТИН, СЕРБИЯ
On Forums: 13 years 11 months
Thanks: 2786 time(s)



Flac

Register


Go to the top of the page
  Insert nick Quick quote
+Quote Post
post May 20 2021, 11:17:59
Post #3

добрый мизантроп
**************
Group: Металариец
Posts: 2,394
Releases: 1
From: Менск
On Forums: 10 years 10 months
Thanks: 1081 time(s)
Madagascar


Very fine well played standard DM. Listened already 2 times and its still enjoyable.


Thanks:
(1) Occultas,
Go to the top of the page
  Insert nick Quick quote
+Quote Post
post May 20 2021, 16:02:31
Post #4

кручу наждак
**************
Group: Металариец
Posts: 5,136
Releases: 104
From: Самара
On Forums: 11 years 4 months
Thanks: 4125 time(s)
Russian Federation


Ну так себе, близко к бруталу, в том числе по тупому однообразию треков, плюс хреновый звук. В лучшем случае на разок.
Go to the top of the page
  Insert nick Quick quote
+Quote Post

Reply to this topicStart new topic
2 User(s) are reading this topic (2 Guests and 0 Anonymous Users)
0 Members:

 



- Lo-Fi Version Support form
Copyrights and abuse reports form
Time is now: 27th September 2021 - 06:00:36