Welcome Guest ( Log In | Register )

> Tetrarch - Unstable (2021), Metalcore (D4)
post Apr 30 2021, 16:14:56
Post #1

Правь статус, ####!111
**************
Group: Металариец
Posts: 4,158
Releases: 3811
From: Одесса
On Forums: 13 years 1 month
Thanks: 41565 time(s)
Ukraine


(IMG:http://metalarea.org/images/audiocovers/2021_Apr/acov_tid350273_thumb.jpg)

*Artist: Tetrarch
*Album: Unstable
*Year: 2021
*Genre: Metalcore
*Country: United States (IMG:http://metalarea.org/forum/style_images/flags/United%20States.png)
*Format: mp3@CBR320kbps
*Size: 87MB

Tracklist:
1. I’m Not Right 03:46
2. Negative Noise 04:07
3. Unstable 03:27
4. You Never Listen 03:20
5. Sick of You 03:18
6. Take a Look Inside 03:51
7. Stitch Me Up 03:32
8. Addicted 04:27
9. Pushed Down 02:49
10. Trust Me 04:20
******************************
Total playing time: 36:57

Extended info
Line - up:

Diamond Rowe - Guitars (lead)
Josh Fore - Vocals, Guitars (rhythm)
Ryan Lerner - Bass
Rubén Limas - Drums, Percussion (ex-Gillman, ex-Sifting)



Technical info
(IMG:http://metalarea.org/images/spectrogram/2021_Apr/a55f56250e44cd43ae594914b80be9f9.png)
Input File: 10. Trust Me.mp3
Channels : 2
Sample Rate : 44100
Precision : 16-bit
Duration : 00:04:20.43 = 11485051 samples = 19532.4 CDDA sectors
File Size : 10.4M
Bit Rate : 320k
Sample Encoding: MPEG audio (layer I, II or III)
Comments :
Title=Trust Me
Artist=Tetrarch
Album=Unstable
Tracknumber=10
Year=2021
Genre=Metalcore



Register


Go to the top of the page
  Insert nick Quick quote
+Quote Post
 
Start new topic
Replies (1 - 1)
post May 3 2021, 05:59:46
Post #2

Пять Литров
*****
Group: Металариец
Posts: 493
Releases: 0
From: Ташкент
On Forums: 13 years 5 months
Thanks: 160 time(s)
Uzbekistan


Я не сразу понял, что это девочка )))
А группа норм.

(IMG:https://d28vr35rno8k21.cloudfront.net/images/7UJ3Ie6hEGODJYmvRBoPU_image1.JPG)



Thanks:
Go to the top of the page
  Insert nick Quick quote
+Quote Post

Reply to this topicStart new topic
2 User(s) are reading this topic (2 Guests and 0 Anonymous Users)
0 Members:

 



- Lo-Fi Version Support form
Copyrights and abuse reports form
Time is now: 25th July 2021 - 03:43:09