Welcome Guest ( Log In | Register )

> Anapilin - Dezintegracija (2021), Black Metal
post May 1 2021, 13:10:31
Post #1

Шесть Литров
******
Group: Металариец
Posts: 535
Releases: 479
On Forums: 2 months 3 weeks
Thanks: 11435 time(s)
United States


(IMG:https://metalarea.org/images/audiocovers/2021_May/acov_tid350316_thumb.jpg)

*Artist: Anapilin
*Album: Dezintegracija
*Year: 2021
*Genre: Black Metal
*Country: Lithuania (IMG:https://metalarea.org/forum/style_images/flags/Lithuania.png)
*Format: mp3@CBR320kbps
*Size: 100MB

Tracklist:
01. Aeternum
02. Oderint Dum Metuant
03. Postmortem
04. Vox Nihili
05. Ad Absurdum
06. Sub Finem
07. Dictum Factum
08. Dezintegracija
******************************
Total playing time: 41:20



Technical info
(IMG:https://metalarea.org/images/spectrogram/2021_May/73cdac8ef16cd2862b10ab55a37bdc99.png)
Input File: 02. Oderint Dum Metuant.mp3
Channels : 2
Sample Rate : 44100
Precision : 16-bit
Duration : 00:06:13.76 = 16482684 samples = 28031.8 CDDA sectors
File Size : 15.0M
Bit Rate : 321k
Sample Encoding: MPEG audio (layer I, II or III)
Comments :
Title=Oderint Dum Metuant
Artist=Anapilin
Album=Dezintegracija
Tracknumber=02/08
Year=2021-04-30
Genre=Metal
Discnumber=1



Register


Go to the top of the page
  Insert nick Quick quote
+Quote Post
 
Start new topic
Replies (1 - 2)
post May 4 2021, 19:52:02
Post #2

Мегаманьяк
***********
Group: Металариец
Posts: 1,599
Releases: 25
From: Spain
On Forums: 13 years 10 months
Thanks: 1351 time(s)
Spain


Register


Thanks:
(1) Occultas,
Go to the top of the page
  Insert nick Quick quote
+Quote Post
post May 12 2021, 10:24:44
Post #3

Правь статус, ####!111
**************
Group: Металариец
Posts: 5,001
Releases: 441
From: MoscoW
On Forums: 14 years 7 months
Thanks: 7203 time(s)
Russian Federation


ANAPILIN:
Go to the top of the page
  Insert nick Quick quote
+Quote Post

Reply to this topicStart new topic
1 User(s) are reading this topic (1 Guests and 0 Anonymous Users)
0 Members:

 



- Lo-Fi Version Support form
Copyrights and abuse reports form
Time is now: 24th July 2021 - 12:51:51