Welcome Guest ( Log In | Register )

> Releases Upload / Добавление релизов

Добавить релиз тут / Click here to add release
Рекомендованные обменники / Recommended file shares

> Estve - Egyenes Labirintus (2021), Black Metal
post May 2 2021, 01:28:22
Post #1

Malum dominus omnium
****
Group: Металариец
Posts: 364
Releases: 275
On Forums: 1 year 3 months
Thanks: 5496 time(s)
Vatican City


(IMG:https://metalarea.org/images/audiocovers/2021_May/acov_tid350336_thumb.jpg)

*Artist: Estve
*Album: Egyenes Labirintus
*Year: 2021
*Genre: Black Metal
*Country: Hungary (IMG:https://metalarea.org/forum/style_images/flags/Hungary.png)
*Format: mp3@CBR320kbps
*Size: 68MB

Tracklist:
1. A homályból 04:16
2. Venomous Manifestation 06:52
3. Maelstrom of Vengeance 04:34
4. The Torchbearer 03:52
5. Harvesting My Grief 04:28
6. Ascending Downfall 04:28
******************************
Total playing time: 28:30

Metal Archives

(IMG:https://metalarea.org/images/youtube.png)

Technical info
(IMG:https://metalarea.org/images/spectrogram/2021_May/89962de8ad1536effdcae26fd08e7fee.png)
Input File: Estve - A homályból.mp3
Channels : 2
Sample Rate : 44100
Precision : 16-bit
Duration : 00:04:16.20 = 11298288 samples = 19214.8 CDDA sectors
File Size : 10.2M
Bit Rate : 320k
Sample Encoding: MPEG audio (layer I, II or III)
Comments :
Title=A homályból
Artist=Estve
Album=Egyenes labirintus
Tracknumber=1
Year=2021
Genre=Black Metal



Register


Go to the top of the page
  Insert nick Quick quote
+Quote Post
 
Start new topic
Replies (1 - 3)
post May 2 2021, 07:55:57
Post #2

Group: Дух
Posts: 8
Releases: 0
On Forums: 3 months 1 week
Thanks: 0 time(s)
Unknown


The demo was wonderful, let's hear what's here

Expectations were not met ..
Go to the top of the page
  Insert nick Quick quote
+Quote Post
post May 2 2021, 20:09:15
Post #3

While Waiting the Worms
**********
Group: Металариец
Posts: 1,317
Releases: 0
On Forums: 7 years 5 months
Thanks: 1973 time(s)
Unknown


Отличное было демо, полноформат вышел гораздо слабее.
Мне сразу Нидерганг вспомнился из той же местности, те точно так же сдулись после демок, да и вообще подобных примеров масса.
Go to the top of the page
  Insert nick Quick quote
+Quote Post
post May 3 2021, 11:02:49
Post #4

градусы контрастов
**************
Group: Металариец
Posts: 4,993
Releases: 0
On Forums: 5 years 4 months
Thanks: 3233 time(s)
Unknown


все закономерно, крутое демо, бледный полноформат.
Go to the top of the page
  Insert nick Quick quote
+Quote Post

Reply to this topicStart new topic
2 User(s) are reading this topic (2 Guests and 0 Anonymous Users)
0 Members:

 



- Lo-Fi Version Support form
Copyrights and abuse reports form
Time is now: 19th June 2021 - 11:28:08