Welcome Guest ( Log In | Register )

> Phlegein - Labyrinth Of Wonder [ep] (2021), Black Metal (D)
post May 2 2021, 01:45:25
Post #1

Malum dominus omnium
****
Group: Металариец
Posts: 364
Releases: 275
On Forums: 1 year 3 months
Thanks: 5496 time(s)
Vatican City


(IMG:https://metalarea.org/images/audiocovers/2021_May/acov_tid350338_thumb.jpg)

*Artist: Phlegein
*Album: Labyrinth Of Wonder [ep]
*Year: 2021
*Genre: Black Metal
*Country: Finland (IMG:https://metalarea.org/forum/style_images/flags/Finland.png)
*Format: mp3@CBR320kbps
*Size: 46MB

Tracklist:
1. Syvyyksissä 03:04
2. Labyrinth of Wonder 03:45
3. Saviour 04:03
4. March for Doom of Humanity 03:58
5. Tribe Profane 05:04
******************************
Total playing time: 19:54

Website
(IMG:https://metalarea.org/images/youtube.png)
Metal Archives

Technical info
(IMG:https://metalarea.org/images/spectrogram/2021_May/623f3d94e7eab34e8ef6caa85b62a8f1.png)
Input File: Phlegein - Syvyyksissä.mp3
Channels : 2
Sample Rate : 48000
Precision : 16-bit
Duration : 00:03:04.64 = 8862720 samples ~ 13848 CDDA sectors
File Size : 7.39M
Bit Rate : 320k
Sample Encoding: MPEG audio (layer I, II or III)
Comments :
Title=Syvyyksissä
Artist=Phlegein
Album=Labyrinth of Wonder
Tracknumber=1
Year=2021
Genre=Black Metal



Register


Go to the top of the page
  Insert nick Quick quote
+Quote Post
 
Start new topic
Replies (1 - 3)
post May 4 2021, 19:29:12
Post #2

кручу наждак
**************
Group: Металариец
Posts: 4,999
Releases: 104
From: Самара
On Forums: 11 years 1 month
Thanks: 4045 time(s)
Russian Federation


Блэк из финляндии, но не финка. Быстрое и злое музло, без характерных плясовых мотивов.
Go to the top of the page
  Insert nick Quick quote
+Quote Post
post May 4 2021, 19:51:52
Post #3

Восемь Литров
********
Group: Металариец
Posts: 803
Releases: 2
On Forums: 2 years 1 week
Thanks: 613 time(s)
Russian Federation


Без изысков, впрочем, как и всегда. Облога нормас зато.
Go to the top of the page
  Insert nick Quick quote
+Quote Post
post May 11 2021, 09:33:48
Post #4

Четыре Литра
****
Group: Металариец
Posts: 391
Releases: 10
On Forums: 14 years 3 months
Thanks: 561 time(s)
French Southern Territories


What's the point uploading these youtube rips and pretending it's 320?
Go to the top of the page
  Insert nick Quick quote
+Quote Post

Reply to this topicStart new topic
2 User(s) are reading this topic (2 Guests and 0 Anonymous Users)
0 Members:

 



- Lo-Fi Version Support form
Copyrights and abuse reports form
Time is now: 19th June 2021 - 11:15:18