Welcome Guest ( Log In | Register )

> Releases Upload / Добавление релизов

Добавить релиз тут / Click here to add release
Рекомендованные обменники / Recommended file shares

> Camponero - From An Ancient Epoch (2021), Raw/Atmospheric Black Metal
post May 2 2021, 17:02:09
Post #1

Malum dominus omnium
****
Group: Металариец
Posts: 364
Releases: 275
On Forums: 1 year 3 months
Thanks: 5496 time(s)
Vatican City


(IMG:https://metalarea.org/images/audiocovers/2021_May/acov_tid350358_thumb.jpg)

*Artist: Camponero
*Album: From An Ancient Epoch
*Year: 2021
*Genre: Raw/Atmospheric Black Metal
*Country: Italy (IMG:https://metalarea.org/forum/style_images/flags/Italy.png)
*Format: mp3@CBR320kbps
*Size: 98MB

Tracklist:
1. At the Gates of the Middle Ages 03:00
2. Fight for Living 02:40
3. The Castle of the Wood Fairy Tale 00:51
4. The Knight's Sword 04:20
5. Mystic Landscapes 01:32
6. Ancient Conquests 01:32
7. Peace Illusion 03:09
8. ...in the Name of Vocation 07:29
9. The Solitude Path and the Storm 05:29
10. Chant of the Forest 00:48
11. The Last Sunset on the Summit 05:28
12. From an Ancient Epoch (That Will Never Come Back Again) 01:55
******************************
Total playing time: 38:13

Metal Archives
(IMG:https://metalarea.org/images/youtube.png)

Technical info
(IMG:https://metalarea.org/images/spectrogram/2021_May/e6da2801fe010c5aa4bb905b9c518c8d.png)
Input File: Camponero - .in the Name of Vocation.mp3
Channels : 2
Sample Rate : 44100
Precision : 16-bit
Duration : 00:07:30.01 = 19845441 samples = 33750.8 CDDA sectors
File Size : 18.0M
Bit Rate : 320k
Sample Encoding: MPEG audio (layer I, II or III)
Comments :
Title=...in the Name of Vocation
Artist=Camponero
Album=From an Ancient Epoch
Tracknumber=8
Year=2021
Genre=Black Metal



Register


Go to the top of the page
  Insert nick Quick quote
+Quote Post
 
Start new topic
Replies (1 - 2)
post May 2 2021, 20:46:15
Post #2

Правь статус, ####!111
**************
Group: Металариец
Posts: 4,857
Releases: 374
From: MoscoW
On Forums: 14 years 6 months
Thanks: 6333 time(s)
Russian Federation


CAMPONERO:


Go to the top of the page
  Insert nick Quick quote
+Quote Post
post May 22 2021, 14:17:32
Post #3

добрый мизантроп
**************
Group: Металариец
Posts: 2,237
Releases: 1
From: Минск
On Forums: 10 years 7 months
Thanks: 1040 time(s)
Madagascar


(IMG:style_emoticons/default/true_black.gif) (IMG:style_emoticons/default/true_black.gif) (IMG:style_emoticons/default/true_black.gif)
Go to the top of the page
  Insert nick Quick quote
+Quote Post

Reply to this topicStart new topic
2 User(s) are reading this topic (2 Guests and 0 Anonymous Users)
0 Members:

 



- Lo-Fi Version Support form
Copyrights and abuse reports form
Time is now: 19th June 2021 - 10:38:48