Welcome Guest ( Log In | Register )

> И неформату есть предел.

Рэп/хип-хоп/шансон/поп удаляются. Для них есть свои порталы.

> Mariusz Duda - Lockdown Spaces [ep] (2020), Ambient
post May 2 2021, 17:27:25
Post #1

21st Century Schizoid Man
**************
Group: Металариец
Posts: 6,941
Releases: 84
From: Pdmsk
On Forums: 13 years 4 months
Thanks: 5849 time(s)
Russian Federation


(IMG:http://metalarea.org/images/audiocovers/2021_May/acov_tid350361_thumb.jpg)

*Artist: Mariusz Duda
*Album: Lockdown Spaces [ep]
*Year: 2020
*Genre: Ambient
*Country: Poland (IMG:http://metalarea.org/forum/style_images/flags/Poland.png)
*Format: mp3@CBR320kbps
*Size: 77MB

Tracklist:
01. Isolated 05:51
02. Lockdown Spaces 02:54
03. Bricks 06:32
04. Waiting 02:08
05. Thought Invaders 04:20
06. Pixel Heart 05:26
07. Silent Hall 01:09
08. Unboxing Hope 05:00
09. Screensaver 00:55
******************************
Total playing time: 34:15

(IMG:http://metalarea.org/images/youtube.png)


Extended info
Released June 26, 2020
Composed and performed by Mariusz Duda
Recorded during two weeks in June 2020 at Serakos Studio, Warszawa by Magda and Robert Srzedniccy
Artwork by Hajo Muller


Technical info
(IMG:http://metalarea.org/images/spectrogram/2021_May/f7b3795c085aa274dea8990e9e75a8fa.png)
Input File: 01. Isolated.mp3
Channels : 2
Sample Rate : 44100
Precision : 16-bit
Duration : 00:05:51.66 = 15508030 samples = 26374.2 CDDA sectors
File Size : 14.1M
Bit Rate : 320k
Sample Encoding: MPEG audio (layer I, II or III)
Comments :
Title=Isolated
Artist=Mariusz Duda
Album=Lockdown Spaces
Tracknumber=01
Year=2020
Genre=Ambient



Register


Go to the top of the page
  Insert nick Quick quote
+Quote Post
 
Start new topic
Replies (1 - 3)
post May 2 2021, 18:22:31
Post #2

21st Century Schizoid Man
**************
Group: Металариец
Posts: 6,941
Releases: 84
From: Pdmsk
On Forums: 13 years 4 months
Thanks: 5849 time(s)
Russian Federation


На подходе ещё одна EP: Claustrophobic Universe (2021). Пока нет надёжного лося.
Go to the top of the page
  Insert nick Quick quote
+Quote Post
post May 3 2021, 10:54:40
Post #3

Ёлд ХеллоВяйне
Group Icon
Group: V.I.P
Posts: 32,070
Releases: 144
From: Питер
On Forums: 14 years 10 months
Thanks: 20101 time(s)
Russian Federation


Yarri, а вменяемый обменник можно?
Go to the top of the page
  Insert nick Quick quote
+Quote Post
post May 4 2021, 09:13:11
Post #4

21st Century Schizoid Man
**************
Group: Металариец
Posts: 6,941
Releases: 84
From: Pdmsk
On Forums: 13 years 4 months
Thanks: 5849 time(s)
Russian Federation


Добавил мегу.


Thanks:
Go to the top of the page
  Insert nick Quick quote
+Quote Post

Reply to this topicStart new topic
2 User(s) are reading this topic (2 Guests and 0 Anonymous Users)
0 Members:

 



- Lo-Fi Version Support form
Copyrights and abuse reports form
Time is now: 25th September 2021 - 01:49:24