Welcome Guest ( Log In | Register )

 
Reply to this topicStart new topic
> Ouija - Selenophile Impia [ep] (2021), Black Metal (D6)
post May 2 2021, 20:42:52
Post #1

Malum dominus omnium
****
Group: Металариец
Posts: 364
Releases: 275
On Forums: 1 year 3 months
Thanks: 5496 time(s)
Vatican City


(IMG:https://metalarea.org/images/audiocovers/2021_May/acov_tid350367_thumb.jpg)

*Artist: Ouija
*Album: Selenophile Impia [ep]
*Year: 2021
*Genre: Black Metal
*Country: Spain (IMG:https://metalarea.org/forum/style_images/flags/Spain.png)
*Format: mp3@CBR320kbps
*Size: 44MB

Tracklist:
1. Selenophile Impia 07:07
2. Kerberos... Like Hell Dogs 04:21
3. Therianthropic Involution 07:36
******************************
Total playing time: 19:04

Metal Archives
(IMG:https://metalarea.org/images/youtube.png)



Technical info
(IMG:https://metalarea.org/images/spectrogram/2021_May/fa693dc3c7f06960ae76db7214a85a5c.png)
Input File: Ouija - Therianthropic Involution.mp3
Channels : 2
Sample Rate : 48000
Precision : 16-bit
Duration : 00:07:36.85 = 21928704 samples ~ 34263.6 CDDA sectors
File Size : 18.3M
Bit Rate : 320k
Sample Encoding: MPEG audio (layer I, II or III)
Comments :
Title=Therianthropic Involution
Artist=Ouija
Album=Selenophile Impia
Tracknumber=3
Year=2021
Genre=Black Metal



Register


Go to the top of the page
  Insert nick Quick quote
+Quote Post

Reply to this topicStart new topic
2 User(s) are reading this topic (2 Guests and 0 Anonymous Users)
0 Members:

 



- Lo-Fi Version Support form
Copyrights and abuse reports form
Time is now: 19th June 2021 - 11:07:46